[TR24][SM][OF] Johann Sebastian Bach - Sechs Suiten fur Violoncello Solo (Six Cello Suites) BWV 1007-1012 - Thomas Demenga - 2017 (Classical)


Статистика роздачі [Оновити пиров]
Розмір:  2,34 GB   |    Зареєстрований:  1 рік   |    Скачано:  0 раз

Повного джерела не було: Ніколи

by Паночка ®
09-Бер-2018 20:17


[TR24][SM][OF] Johann Sebastian Bach - Sechs Suiten fur Violoncello Solo (Six Cello Suites) BWV 1007-1012 - Thomas Demenga - 2017 (Classical)

Johann Sebastian Bach - Suiten für Violoncello - Thomas Demenga
Формат записи/Источник записи: [TR24][SM][OF]
Наличие водяных знаков: Нет
Год издания/переиздания диска: 2017
Жанр: Classical
Издатель (лейбл): ECM New Series
Продолжительность: 02:08:57
Наличие сканов в содержимом раздачи: Буклет PDF
Контейнер: FLAC (*.flac)
Тип рипа: tracks
Разрядность: 24/96
Формат: PCM
Количество каналов: 2.0
Источник: qobuz.com
Композитор: Johann Sebastian Bach (1685-1750)
Исполнитель: Thomas Demenga, cello

Треклист

Johann Sebastian Bach (1685-1750)
Disc 1
Cello Suite No.1 in G Major, BWV 1007
1. Prélude 02:19
2. Allemande 04:06
3. Courante 02:23
4. Sarabande 02:26
5. Menuet I & II 03:18
6. Gigue 01:38
Cello Suite No.2 in D Minor, BWV 1008
7. Prélude 03:55
8. Allemande 03:42
9. Courante 01:58
10. Sarabande 03:49
11. Menuet I & II 03:00
12. Gigue 02:44
Cello Suite No.3 in C major, BWV 1009
13. Prélude 03:07
14. Allemande 03:48
15. Courante 02:55
16. Sarabande 03:29
17. Bourrée I & II 03:35
18. Gigue 03:13
Disc 2
Cello Suite No.4 in E-Flat Major, BWV 1010
1. Prélude 03:50
2. Allemande 04:10
3. Courante 03:17
4. Sarabande 03:07
5. Bourrée I & II 04:25
6. Gigue 02:58
Cello Suite No.5 in C Minor, BWV 1011
7. Prélude 05:37
8. Allemande 04:39
9. Courante 02:11
10. Sarabande 03:13
11. Gavotte I & II 04:45
12. Gigue 02:32
Cello Suite No.6 in D Major, BWV 1012
13. Prélude 04:34
14. Allemande 08:12
15. Courante 03:31
16. Sarabande 04:52
17. Gavotte I & II 03:09
18. Gigue 04:14
Recorded February 2014, Hans Huber Saal, Basel

Лог проверки качества

foobar2000 1.3.16 / Dynamic Range Meter 1.1.1log date: 2018-02-02 21:53:49
--------------------------------------------------------------------------------Analyzed: Thomas Demenga / Bach, J.S.: Suiten für Violoncello--------------------------------------------------------------------------------
DR Peak RMS Duration Track--------------------------------------------------------------------------------DR11 -5.36 dB -20.98 dB 2:18 01-Cello Suite No. 1 in G Major, BWV 1007: I. PreludeDR12 -4.59 dB -20.01 dB 4:06 02-Cello Suite No. 1 in G Major, BWV 1007: II. AllemandeDR13 -2.50 dB -20.78 dB 2:23 03-Cello Suite No. 1 in G Major, BWV 1007: III. CouranteDR13 -2.35 dB -18.55 dB 2:26 04-Cello Suite No. 1 in G Major, BWV 1007: IV. SarabandeDR13 -3.45 dB -19.98 dB 3:19 05-Cello Suite No. 1 in G Major, BWV 1007: V. Menuet I & IIDR12 -1.90 dB -20.83 dB 1:38 06-Cello Suite No. 1 in G Major, BWV 1007: VI. GigueDR12 -2.38 dB -19.27 dB 3:56 07-Cello Suite No. 2 in D Minor, BWV 1008: I. PreludeDR12 -4.83 dB -19.90 dB 3:43 08-Cello Suite No. 2 in D Minor, BWV 1008: II. AllemandeDR14 -2.11 dB -20.02 dB 1:59 09-Cello Suite No. 2 in D Minor, BWV 1008: III. CouranteDR12 -2.69 dB -21.02 dB 3:49 10-Cello Suite No. 2 in D Minor, BWV 1008: IV. SarabandeDR13 -2.41 dB -19.75 dB 3:01 11-Cello Suite No. 2 in D Minor, BWV 1008: V. Menuet I & IIDR12 -2.19 dB -18.75 dB 2:45 12-Cello Suite No. 2 in D Minor, BWV 1008: VI. GigueDR12 -3.27 dB -18.98 dB 3:08 13-Cello Suite No. 3 in C Major, BWV 1009: I. PreludeDR15 -2.75 dB -22.35 dB 3:48 14-Cello Suite No. 3 in C Major, BWV 1009: II. AllemandeDR13 -2.22 dB -20.99 dB 2:56 15-Cello Suite No. 3 in C Major, BWV 1009: III. CouranteDR12 -4.77 dB -20.74 dB 3:30 16-Cello Suite No. 3 in C Major, BWV 1009: IV. SarabandeDR13 -2.69 dB -19.74 dB 3:36 17-Cello Suite No. 3 in C Major, BWV 1009: V. Bourrée I & IIDR13 -3.22 dB -20.13 dB 3:14 18-Cello Suite No. 3 in C Major, BWV 1009: VI. GigueDR12 -3.12 dB -19.75 dB 3:50 01-Cello Suite No. 4 in E-Flat Major, BWV 1010: I. PreludeDR13 -4.52 dB -21.24 dB 4:10 02-Cello Suite No. 4 in E-Flat Major, BWV 1010: II. AllemandeDR13 -3.62 dB -21.10 dB 3:18 03-Cello Suite No. 4 in E-Flat Major, BWV 1010: III. CouranteDR12 -5.62 dB -21.60 dB 3:08 04-Cello Suite No. 4 in E-Flat Major, BWV 1010: IV. SarabandeDR14 -1.25 dB -21.25 dB 4:25 05-Cello Suite No. 4 in E-Flat Major, BWV 1010: V. Bourrée I & IIDR13 -4.68 dB -21.94 dB 2:59 06-Cello Suite No. 4 in E-Flat Major, BWV 1010: VI. GigueDR12 -1.62 dB -18.29 dB 5:37 07-Cello Suite No. 5 in C Minor, BWV 1011: I. PreludeDR12 -1.58 dB -18.40 dB 4:40 08-Cello Suite No. 5 in C Minor, BWV 1011: II. AllemandeDR12 -2.40 dB -17.72 dB 2:11 09-Cello Suite No. 5 in C Minor, BWV 1011: III. CouranteDR12 -7.29 dB -23.95 dB 3:14 10-Cello Suite No. 5 in C Minor, BWV 1011: IV. SarabandeDR12 -2.42 dB -18.98 dB 4:46 11-Cello Suite No. 5 in C Minor, BWV 1011: V. Gavotte I & IIDR12 -2.81 dB -19.98 dB 2:32 12-Cello Suite No. 5 in C Minor, BWV 1011: VI. GigueDR12 -4.49 dB -21.11 dB 4:35 13-Cello Suite No. 6 in D Major, BWV 1012: I. PreludeDR13 -2.38 dB -19.12 dB 8:13 14-Cello Suite No. 6 in D Major, BWV 1012: II. AllemandeDR14 -7.33 dB -24.46 dB 3:32 15-Cello Suite No. 6 in D Major, BWV 1012: III. CouranteDR12 -1.98 dB -17.72 dB 4:52 16-Cello Suite No. 6 in D Major, BWV 1012: IV. SarabandeDR12 -5.00 dB -21.79 dB 3:10 17-Cello Suite No. 6 in D Major, BWV 1012: V. Gavotte I & IIDR13 -5.94 dB -23.12 dB 4:14 18-Cello Suite No. 6 in D Major, BWV 1012: VI. Gigue--------------------------------------------------------------------------------
Number of tracks: 36Official DR value: DR13
Samplerate: 96000 HzChannels: 2Bits per sample: 24Bitrate: 2484 kbpsCodec: FLAC================================================================================

Об альбоме (сборнике)

Swiss cellist Thomas Demenga returns to Bach’s suites. “To me, Bach is the greatest musical genius who has ever lived. His music is pure, sublime. It possesses something divine and each musician has a lifetime in which to discover new ways of interpreting it.” Demenga previously recorded the cello suites for ECM between 1986 and 2002, juxtaposing them with contemporary composition in albums that count as milestones in the early history of the New Series. This new double album however is devoted entirely to Bach and the six suites. Many years of playing and studying every aspect of them, from source manuscripts to different tempos, embellishments, fingerings and bowings, have brought Demenga to the heart of the music – which Bach himself described as the only goal. This new account of the music was recorded at the Hans Huber Saal in Basel. (Simultaneously with the 2-CD set ECM is issuing a vinyl album with the Préludes and Sarabandes from the suites).



Ви не можете починати теми
Ви не можете відповідати на повідомлення
Ви не можете редагувати свої повідомлення
Ви не можете видаляти свої повідомлення
Ви не можете голосувати в опитуваннях
Ви не можете прикріплювати файли до повідомлень
Ви можете скачувати файли