[TR24][OF] Antonin Dvorak— String Quintet, Op. 97 · String Sextet, Op. 48 (Jerusalem Quartet, Veronika Hagen, Gary Hoffman) - 2018 (Classical)


Статистика роздачі [Оновити пиров]
Розмір:  1,21 GB   |    Зареєстрований:  1 рік   |    Скачано:  0 раз

Повного джерела не було: Ніколи

by Паночка ®
09-Бер-2018 20:16


[TR24][OF] Antonin Dvorak— String Quintet, Op. 97 · String Sextet, Op. 48 (Jerusalem Quartet, Veronika Hagen, Gary Hoffman) - 2018 (Classical)

Antonin Dvořák
String Quintet, Op. 97 · String Sextet, Op. 48

Harmonia Mundi · No. HMM902320 · 2018 · web
FLAC · 24 bit · 96 khz · 01:06:55 · booklet
___________________________________________
Jerusalem Quartet:
Alexander Pavlovsky..................violin
Sergei Bresler.......................violin
Ori Kam...............................viola
Kyril Zlotnikov.......................cello
Veronika Hagen........................viola
Gary Hoffman.........................cello*

Tracklist

01-04. String Sextet, Op. 4*05-08. String Quintet No. 3, Op. 97

Log

foobar2000 1.3.15 / Dynamic Range Meter 1.1.1log date: 2018-02-06 07:12:55
--------------------------------------------------------------------------------Analyzed: Jerusalem Quartet, Veronika Hagen, Gary Hoffman / Antonin Dvořák — String Quintet, Op. 97; String Sextet, Op. 48--------------------------------------------------------------------------------
DR Peak RMS Duration Track--------------------------------------------------------------------------------DR14 -0.55 dB -20.03 dB 13:50 01-String Sextet, Op. 48: I. Allegro moderatoDR16 -0.55 dB -23.17 dB 6:57 02-String Sextet, Op. 48: II. Dumka (Elegie). Poco allegrettoDR14 -0.55 dB -19.56 dB 4:18 03-String Sextet, Op. 48: III. Furiant. Presto-TrioDR16 -0.55 dB -21.71 dB 8:37 04-String Sextet, Op. 48: IV. FinaleDR14 -0.55 dB -18.64 dB 9:17 05-String Quintet No. 3, Op. 97: I. Allegro non tantoDR14 -0.55 dB -20.52 dB 5:42 06-String Quintet No. 3, Op. 97: II. Allegro vivo-Minore. Un poco meno mossoDR13 -2.01 dB -22.33 dB 10:01 07-String Quintet No. 3, Op. 97: III. LarghettoDR14 -0.55 dB -18.34 dB 8:15 08-String Quintet No. 3, Op. 97: IV. Finale. Allegro giusto--------------------------------------------------------------------------------
Number of tracks: 8Official DR value: DR14
Samplerate: 96000 HzChannels: 2Bits per sample: 24Bitrate: 2667 kbpsCodec: FLAC================================================================================

Range

01 String Sextet, Op. 48 I. Allegro moderato.flac



Ви не можете починати теми
Ви не можете відповідати на повідомлення
Ви не можете редагувати свої повідомлення
Ви не можете видаляти свої повідомлення
Ви не можете голосувати в опитуваннях
Ви не можете прикріплювати файли до повідомлень
Ви можете скачувати файли