[TR24][OF] Franz Schubert - Trout Quintet (Anne-Sophie Mutter, Daniil Trifonov) - 2017 (Chamber Music)


Статистика роздачі [Оновити пиров]
Розмір:  901 MB   |    Зареєстрований:  1 рік   |    Скачано:  0 раз

Повного джерела не було: Ніколи

by Паночка ®
09-Бер-2018 20:16


[TR24][OF] Franz Schubert - Trout Quintet (Anne-Sophie Mutter, Daniil Trifonov) - 2017 (Chamber Music)

Franz Schubert: Forellenquintett · Trout Quintet Формат записи/Источник записи: [TR24][OF]
Наличие водяных знаков: Нет
Год издания/переиздания диска: 2017
Жанр: Chamber Music
Издатель (лейбл): Deutsche Grammophon
Продолжительность: 00:55:00
Наличие сканов в содержимом раздачи: Буклет PDF+обложка
Контейнер: FLAC (*.flac)
Тип рипа: tracks
Разрядность: 24/96
Формат: PCM
Количество каналов: 2.0

Tracklist

Piano Quintet In A Major, Op. 114, D 667 - 'The Trout'
01. Allegro vivace [11:45]
02. Andante [6:40]
03. Scherzo (Presto) [3:44]
04. Thema - Andantino - Variazioni I-V - Allegretto [6:45]
05. Finale (Allegro giusto) [9:43]

06. Notturno For Piano, Violin And Violoncello In E Flat Major, Op. 148, D 897 [8:13]
07. Schwanengesang, D. 957: 4. Ständchen In D Minor (Arr. For Violin And Piano) [4:32]
08. Ellens Gesang III, Op. 52, No.6, D 839: Ave Maria In B Flat Major (Arr. For Violin And Piano) [4:33]

Исполнители

Anne-Sophie Mutter - violin
Daniil Trifonov - piano
Hwayoon Lee - viola
Maximilian Hornung - cello
Roman Patkoló - double bass

Official DR value: DR15

foobar2000 1.3.14 / Замер динамического диапазона (DR) 1.1.1Дата отчёта:  2018-02-09 20:54:51
--------------------------------------------------------------------------------Анализ: Anne-Sophie Mutter/Daniil Trifonov/Lukas Kowalski/Philip Krause/Bernhard Güttler/Bernhard Güttler / Schubert: Trout Quintet (1-2) Anne-Sophie Mutter/Maximilian Hornung/Daniil Trifonov/Lukas Kowalski/Philip Krause/Bernhard Güttler/Bernhard Güttler / Schubert: Trout Quintet (3) Anne-Sophie Mutter/Maximilian Hornung/Roman Patkoló/Hwayoon Lee/Daniil Trifonov/Lukas Kowalski/Philip Krause/Bernhard Güttler/Bernhard Güttler / Schubert: Trout Quintet (4-8)--------------------------------------------------------------------------------
DR Пики RMS Продолжительность трека--------------------------------------------------------------------------------DR16 -0.10 дБ -21.02 дБ 11:45 01-Piano Quintet In A Major, Op. 114, D 667 - 'The Trout': 1. Allegro vivaceDR17 -2.27 дБ -26.69 дБ 6:40 02-Piano Quintet In A Major, Op. 114, D 667 - 'The Trout': 2. AndanteDR15 -0.09 дБ -19.70 дБ 3:44 03-Piano Quintet In A Major, Op. 114, D 667 - 'The Trout': 3. Scherzo (Presto)DR16 -0.10 дБ -23.12 дБ 6:45 04-Piano Quintet In A Major, Op. 114, D 667 - 'The Trout': 4. Thema - Andantino - Variazioni I-V - AllegrettoDR15 -0.08 дБ -20.26 дБ 9:43 05-Piano Quintet In A Major, Op. 114, D 667 - 'The Trout': 5. Finale (Allegro giusto)DR15 -0.13 дБ -21.49 дБ 8:13 06-Notturno For Piano, Violin And Violoncello In E Flat Major, Op. 148, D 897DR15 -6.22 дБ -26.80 дБ 4:32 07-Schwanengesang, D. 957: 4. Ständchen In D Minor (Arr. For Violin And Piano)DR13 -5.77 дБ -25.00 дБ 4:33 08-Ellens Gesang III, Op. 52, No.6, D 839: Ave Maria In B Flat Major (Arr. For Violin And Piano)--------------------------------------------------------------------------------Количество треков: 8Реальные значения DR: DR15
Частота: 96000 ГцКаналов: 2Разрядность: 24Битрейт: 2259 кбит/сКодек: FLAC================================================================================

Скриншот спектра частот



Об альбоме (сборнике)

Two stars from different generations, artists of the highest calibre, mark their first collaboration with an album devoted to one of the supreme landmarks of classical music.
Anne-Sophie Mutter, who in 2016 celebrated the 40th anniversary of her professional debut, and Daniil Trifonov, now in his mid-twenties, joined forces with three outstanding young string playing alumni of the Mutter Foundation at the Baden-Baden Festspielhaus in June to perform Schubert’s Piano Quintet in A major, popularly known as the “Trout” Quintet.
They also explored the composer’s Notturno, a sublime late work for violin, cello and piano, and arrangements of his songs Ständchen and Ave Maria for violin and piano.
Источник:



Ви не можете починати теми
Ви не можете відповідати на повідомлення
Ви не можете редагувати свої повідомлення
Ви не можете видаляти свої повідомлення
Ви не можете голосувати в опитуваннях
Ви не можете прикріплювати файли до повідомлень
Ви можете скачувати файли