[TR24][OF] Kronthaler — The Living Loving Maid - 2015 (Classical/Crossover)


Статистика роздачі [Оновити пиров]
Розмір:  1,04 GB   |    Зареєстрований:  1 рік   |    Скачано:  0 раз

Повного джерела не було: Ніколи

by Паночка ®
09-Бер-2018 20:16


[TR24][OF] Kronthaler — The Living Loving Maid - 2015 (Classical/Crossover)

Kronthaler
The Living Loving Maid

Sony · G0100031766 · 2015 · web · trailer
FLAC · 24 bit · 96 khz · 00:55:25 · booklet
___________________________________________
Theresa Kronthaler....................vocal
Kalle Kalina....eclectric & acoustic guitar
Olover Portatz.....acoustic & electric bass

Tracklist

01. Vi ricorda, o boschi ombrosi (From the Opera "L'Orfeo")02. Dormo ancora (From the Opera "Il ritorno d'Ulisse in patria")03. Cold Song (From the Opera "King Arthur", Z. 628)04. When I Am Laid in Earth (From the Opera "Dido and Aeneas", Z. 626)05. Possente spirtu (From the Opera "L'Orfeo")06. Se l'aura spira (From Arie musicali, Vol. 1)07. One Charming Night (From the Opera "The Fairy-Queen", Z. 629)08. Tormento (Si dolce è'l tormento)09. Solitude (O Solitude, My Sweetest Choice, Z. 406)10. Endless Light ("As with Rosy Steps the Morn" from the Opera "Theodora", HWV 68)11. Il tempo (From "Rappresentatione di anima et di corpo")12. If Love's a Sweet Passion (From the Opera "The Fairy-Queen", Z. 629)

Log

foobar2000 1.3.15 / Dynamic Range Meter 1.1.1log date: 2018-02-10 11:39:14
--------------------------------------------------------------------------------Analyzed: Kronthaler / The Living Loving Maid--------------------------------------------------------------------------------
DR Peak RMS Duration Track--------------------------------------------------------------------------------DR7 -0.69 dB -9.89 dB 3:35 01-Vi ricorda, o boschi ombrosi (From the Opera "L'Orfeo")DR8 -0.69 dB -12.23 dB 4:19 02-Dormo ancora (From the Opera "Il ritorno d'Ulisse in patria")DR7 -0.69 dB -12.07 dB 5:12 03-Cold Song (From the Opera "King Arthur", Z. 628)DR10 -0.69 dB -14.32 dB 5:00 04-When I Am Laid in Earth (From the Opera "Dido and Aeneas", Z. 626)DR10 -0.69 dB -14.49 dB 7:03 05-Possente spirtu (From the Opera "L'Orfeo")DR7 -0.69 dB -10.58 dB 3:30 06-Se l'aura spira (From Arie musicali, Vol. 1)DR12 -0.69 dB -17.62 dB 4:05 07-One Charming Night (From the Opera "The Fairy-Queen", Z. 629)DR8 -0.69 dB -13.15 dB 4:16 08-Tormento (Si dolce è'l tormento)DR7 -0.69 dB -11.67 dB 4:23 09-Solitude (O Solitude, My Sweetest Choice, Z. 406)DR10 -0.69 dB -14.28 dB 5:28 10-Endless Light ("As with Rosy Steps the Morn" from the Opera "Theodora", HWV 68)DR7 -0.69 dB -11.34 dB 5:05 11-Il tempo (From "Rappresentatione di anima et di corpo")DR12 -0.69 dB -16.49 dB 3:30 12-If Love's a Sweet Passion (From the Opera "The Fairy-Queen", Z. 629)--------------------------------------------------------------------------------
Number of tracks: 12Official DR value: DR9
Samplerate: 96000 HzChannels: 2Bits per sample: 24Bitrate: 2605 kbpsCodec: FLAC================================================================================

Range

01. Vi ricorda, o boschi ombrosi (From the Opera L'Orfeo).flac.jpg
lossless



Ви не можете починати теми
Ви не можете відповідати на повідомлення
Ви не можете редагувати свої повідомлення
Ви не можете видаляти свої повідомлення
Ви не можете голосувати в опитуваннях
Ви не можете прикріплювати файли до повідомлень
Ви можете скачувати файли