[TR24][OF] Brahms — The Piano Trios (Emanuel Ax, Leonidas Kavakos, Yo-Yo Ma) - 2017 (Classical)


Статистика роздачі [Оновити пиров]
Розмір:  1,43 GB   |    Зареєстрований:  1 рік   |    Скачано:  0 раз

Повного джерела не було: Ніколи

by Паночка ®
09-Бер-2018 20:16


[TR24][OF] Brahms — The Piano Trios (Emanuel Ax, Leonidas Kavakos, Yo-Yo Ma) - 2017 (Classical)

Brahms
The Piano Trios

Sony · 88985407292 · 2017 · web · trailer
FLAC · 24 bit · 96 khz · 01:26:19 · booklet
___________________________________________
Emanuel Ax............................piano
Leonidas Kavakos......................viola
Yo-Yo Ma..............................cello

Tracklist

01-04. Brahms — Piano Trio No. 2 in C Major, Op. 871. Allegro [9:51]2. Andante con moto [8:04]3. Scherzo [4:48]4. Finale [6:11]05-08. Brahms — Piano Trio No. 3 in C Minor, Op. 101:1. Allegro energico [7:28]2. Presto non assai [3:52]3. Andante grazioso [4:06]4. Allegro molto [5:39]09-12. Brahms — Piano Trio No. 1 in B Major, Op. 8:1. Allegro con brio [14:34]2. Scherzo: Allegro molto [6:31]3. Adagio [8:30]4. Finale: Allegro [6:46]

Log

foobar2000 1.3.15 / Dynamic Range Meter 1.1.1log date: 2018-02-11 09:45:13
--------------------------------------------------------------------------------Analyzed: Emanuel Ax, Leonidas Kavakos, Yo-Yo Ma / Brahms — The Piano Trios--------------------------------------------------------------------------------
DR Peak RMS Duration Track--------------------------------------------------------------------------------DR14 -0.50 dB -20.54 dB 9:51 01-Piano Trio No. 2 in C Major, Op. 87: 1. AllegroDR15 -1.43 dB -24.30 dB 8:04 02-Piano Trio No. 2 in C Major, Op. 87: 2. Andante con motoDR13 -4.41 dB -22.98 dB 4:48 03-Piano Trio No. 2 in C Major, Op. 87: 3. ScherzoDR14 -1.37 dB -20.96 dB 6:11 04-Piano Trio No. 2 in C Major, Op. 87: 4. FinaleDR14 -2.13 dB -20.73 dB 7:28 05-Piano Trio No. 3 in C Minor, Op. 101: 1. Allegro energicoDR15 -10.78 dB -30.75 dB 3:52 06-Piano Trio No. 3 in C Minor, Op. 101: 2. Presto non assaiDR17 -3.80 dB -28.24 dB 4:06 07-Piano Trio No. 3 in C Minor, Op. 101: 3. Andante graziosoDR14 -1.48 dB -20.96 dB 5:39 08-Piano Trio No. 3 in C Minor, Op. 101: 4. Allegro moltoDR15 -1.26 dB -20.83 dB 14:34 09-Piano Trio No. 1 in B Major, Op. 8: 1. Allegro con brioDR14 -1.65 dB -22.47 dB 6:31 10-Piano Trio No. 1 in B Major, Op. 8: 2. Scherzo: Allegro moltoDR18 -5.05 dB -29.33 dB 8:30 11-Piano Trio No. 1 in B Major, Op. 8: 3. AdagioDR13 -2.75 dB -20.55 dB 6:46 12-Piano Trio No. 1 in B Major, Op. 8: 4. Finale: Allegro--------------------------------------------------------------------------------
Number of tracks: 12Official DR value: DR15
Samplerate: 96000 HzChannels: 2Bits per sample: 24Bitrate: 2375 kbpsCodec: FLAC================================================================================

Range

1.01 Piano Trio No. 2 in C Major, Op. 87 1. Allegro



Ви не можете починати теми
Ви не можете відповідати на повідомлення
Ви не можете редагувати свої повідомлення
Ви не можете видаляти свої повідомлення
Ви не можете голосувати в опитуваннях
Ви не можете прикріплювати файли до повідомлень
Ви можете скачувати файли