[TR24][OF] Handel: Orlando, HWV 31 (Bejun Mehta, Rene Jacobs, Sophie Karthauser, Kristina Hammarstrom, Sunhae Im, Konstantin Wolf/B\'Rock Orchestra, René Jacobs) - 2014 (Baroque opera)


Статистика роздачі [Оновити пиров]
Розмір:  3,14 GB   |    Зареєстрований:  1 рік   |    Скачано:  0 раз

Повного джерела не було: Ніколи

by Паночка ®
09-Бер-2018 20:16


[TR24][OF] Handel: Orlando, HWV 31 (Bejun Mehta, Rene Jacobs, Sophie Karthauser, Kristina Hammarstrom, Sunhae Im, Konstantin Wolf/B\'Rock Orchestra, René Jacobs) - 2014 (Baroque opera)

GEORGE FRIDERIC HANDEL - ORLANDO Формат записи/Источник записи: [TR24][OF]
Наличие водяных знаков: Нет
Год издания/переиздания диска: 2014
Жанр: Baroque opera
Издатель (лейбл): Archiv produktion
Продолжительность: 03:22:00
Наличие сканов в содержимом раздачи: Буклет PDF+обложка
Контейнер: FLAC (*.flac)
Тип рипа: tracks
Разрядность: 24/96
Формат: PCM
Количество каналов: 2.0

Tracklist

01 Ouverture
ATTO PRIMO
02 Accompagnato (Zoroastro)
03 Cavatina (Orlando)
04 Recitativo (Zoroastro, Orlando)
05 Aria (Zoroastro)
06 Accompagnato (Orlando)
07 Accompagnato (Dorinda)
08 Aria (Dorinda)
09 Recitativo (Angelica)
10 Aria (Angelica)
11 Aria (Medoro)
12 Recitativo (Dorinda)
13 Recitativo (Zoroastro, Angelica, Orlando)
14 Aria (Angelica)
15 Recitativo (Orlando)
16 Recitativo (Medoro, Angelica)
17 Terzetto (Angelica, Medoro, Dorinda)
ATTO SECONDO
18 Cavatina (Dorinda)
19 Aria (Dorinda)
20 Recitativo (Orlando)
21 Recitativo (Zoroastro, Angelica, Medoro) - Aria (Zoroastro)
22 Recitativo (Angelica, Medoro) - Aria (Medoro)
23 Recitativo (Angelica) - Aria (Angelica)
Recitativo (Orlando) - Recitativo (Angelica)
24 Aria (Angelica)
25 Recitativo (Orlando, Angelica)
Recitativo (Medoro) - Arioso (Angelica)
Recitativo (Orlando, Angelica)
Accompagnato (Orlando) - Cavatina (Orlando)
Accompagnato (Orlando) - Aria (Orlando)
ATTO TERZO
26 Sinfonia - Recitativo (Medoro, Dorinda)
27 Aria (Medoro)
28 Recitativo (Dorinda) - Recitativo (Orlando, Dorinda) - Arioso e Recitativo (Orlando, Dorinda)
29 Aria (Orlando)
30 Recitativo (Angelica, Dorinda) - Aria (Angelica)
31 Recitativo (Dorinda)
Aria (Dorinda) - Sinfonia
32 Recitativo (Zoroastro) - Accompagnato (Zoroastro) - Recitativo (Zoroastro)
Aria (Zoroastro)
33 Recitativo (Angelica, Dorinda)
Recitativo (Orlando, Angelica)
34 Duetto (Angelica, Orlando)
Recitativo (Orlando, Angelica) - Accompagnato (Orlando)
35 Arioso (Orlando)
36 Recitativo (Zoroastro)
Accompagnato (Zoroastro) - Sinfonia
Recitativo (Dorinda, Zoroastro) - Sinfonia
37 Recitativo (Orlando, Dorinda)
Duettino (Orlando, Angelica)
Recitativo (Orlando, Angelica, Medoro, Zoroastro, Dorinda)
38 Accompagnato - Coro

Исполнители

Orlando - Bejun MehtaAngelica - Sophie KarthauserMedoro - Kristina HammarstromDorinda - Sunhae ImZoroastro - Konstantin Wolff
B'Rock Orchestra GhentRene Jacobs, conductor

Official DR value: DR12

foobar2000 1.3.14 / Замер динамического диапазона (DR) 1.1.1Дата отчёта:  2018-02-04 19:33:38
--------------------------------------------------------------------------------Анализ: B’Rock Baroque Orchestra/Sunhae Im/Konstantin Wolff/Bejun Mehta/Sophie Karthäuser/Kristina Hammarström/Tobias Lehmann/Martin Sauer / Handel: Orlando (1-2) B’Rock Baroque Orchestra/Tobias Lehmann/Martin Sauer / Handel: Orlando (3) Bejun Mehta/B’Rock Baroque Orchestra/Konstantin Wolff/Tobias Lehmann/Martin Sauer / Handel: Orlando (4) Bejun Mehta/B’Rock Baroque Orchestra/Tobias Lehmann/Martin Sauer / Handel: Orlando (5-10) Konstantin Wolff/B’Rock Baroque Orchestra/Tobias Lehmann/Martin Sauer / Handel: Orlando (11-13) Kristina Hammarström/B’Rock Baroque Orchestra/Tobias Lehmann/Martin Sauer / Handel: Orlando (14-15) Sophie Karthäuser/B’Rock Baroque Orchestra/Bejun Mehta/Kristina Hammarström/Tobias Lehmann/Martin Sauer / Handel: Orlando (16) Sophie Karthäuser/B’Rock Baroque Orchestra/Bejun Mehta/Tobias Lehmann/Martin Sauer / Handel: Orlando (17-18) Sophie Karthäuser/B’Rock Baroque Orchestra/Konstantin Wolff/Bejun Mehta/Tobias Lehmann/Martin Sauer / Handel: Orlando (19) Sophie Karthäuser/B’Rock Baroque Orchestra/Konstantin Wolff/Kristina Hammarström/Tobias Lehmann/Martin Sauer / Handel: Orlando (20) Sophie Karthäuser/B’Rock Baroque Orchestra/Kristina Hammarström/Sunhae Im/Tobias Lehmann/Martin Sauer / Handel: Orlando (21-22) Sophie Karthäuser/B’Rock Baroque Orchestra/Kristina Hammarström/Tobias Lehmann/Martin Sauer / Handel: Orlando (23-25) Sophie Karthäuser/B’Rock Baroque Orchestra/Sunhae Im/Tobias Lehmann/Martin Sauer / Handel: Orlando (26) Sophie Karthäuser/B’Rock Baroque Orchestra/Tobias Lehmann/Martin Sauer / Handel: Orlando (27-28) Sunhae Im/B’Rock Baroque Orchestra/Bejun Mehta/Sophie Karthäuser/Tobias Lehmann/Martin Sauer / Handel: Orlando (29) Sunhae Im/B’Rock Baroque Orchestra/Bejun Mehta/Tobias Lehmann/Martin Sauer / Handel: Orlando (30-32) Sunhae Im/B’Rock Baroque Orchestra/Konstantin Wolff/Tobias Lehmann/Martin Sauer / Handel: Orlando (33-34) Sunhae Im/B’Rock Baroque Orchestra/Kristina Hammarström/Tobias Lehmann/Martin Sauer / Handel: Orlando (35) Sunhae Im/B’Rock Baroque Orchestra/Tobias Lehmann/Martin Sauer / Handel: Orlando (36-38)--------------------------------------------------------------------------------
DR Пики RMS Продолжительность трека--------------------------------------------------------------------------------DR12 -0.22 дБ -15.01 дБ 4:49 01-Orlando, HWV 31: OuvertureDR12 -1.95 дБ -17.50 дБ 2:21 02-Orlando, HWV 31: 1. Acc. 'Gieroglifici eterni'DR12 -2.95 дБ -20.18 дБ 1:58 03-Orlando, HWV 31: 2. Cavatina 'Stimulato della gloria'DR14 0.00 дБ -17.88 дБ 1:46 04-Orlando, HWV 31: Rec. 'Purgalo ormai' / 3. Sinfonia / Rec. 'Mira'DR11 -0.11 дБ -13.42 дБ 3:54 05-Orlando, HWV 31: 4. Aria 'Lascia Amor'DR13 0.00 дБ -15.68 дБ 6:58 06-Orlando, HWV 31: 5. Acc. 'Imagini funeste' / 6. Aria 'Non fu già'DR13 -0.12 дБ -17.46 дБ 2:54 07-Orlando, HWV 31: 7. Acc. 'Quanto diletto' / Rec. 'Io non so' / 8. Acc e Rec. 'Itene pur'DR13 -0.28 дБ -15.93 дБ 3:10 08-Orlando, HWV 31: 9. Aria 'Ho un certo rossore'DR13 -0.11 дБ -17.06 дБ 3:04 09-Orlando, HWV 31: Rec. 'M'hai vinto al fin' / 10. Duettino 'Ritornava al suo bel viso' / Rec. 'Spera, mio ben'DR13 -0.24 дБ -16.75 дБ 4:49 10-Orlando, HWV 31: 11. Aria 'Chi possessore' / Rec. 'Ecco Dorinda'DR12 -0.13 дБ -16.17 дБ 3:42 11-Orlando, HWV 31: 12. Aria 'Se'l cor mai ti dirà'DR13 -0.31 дБ -17.18 дБ 4:10 12-Orlando, HWV 31: Rec. 'Povera me!' / 13. Aria 'O care parolette' / Rec. 'Noti a me sono'DR15 -0.36 дБ -18.73 дБ 2:52 13-Orlando, HWV 31: Rec. 'Noti a me sono'DR12 0.00 дБ -15.92 дБ 4:08 14-Orlando, HWV 31: 14. Aria 'Se fedel vuoi'DR11 0.00 дБ -13.42 дБ 4:02 15-Orlando, HWV 31: Rec. 'T'ubbidiro' / 15. Aria 'Fammi combattere'DR13 -0.03 дБ -17.41 дБ 2:19 16-Orlando, HWV 31: Rec. 'Angelica, deh ! lascia...'DR12 -0.23 дБ -14.91 дБ 4:51 17-Orlando, HWV 31: 16. Terzetto 'Consolati, o bella'DR13 0.00 дБ -18.46 дБ 4:44 18-Orlando, HWV 31: 17. Cavatina 'Quando spieghi' / Rec. 'Perchè, gentil Dorinda'DR12 -0.18 дБ -16.04 дБ 5:44 19-Orlando, HWV 31: 18. Aria 'Se mi rivolgo al prato'DR12 0.00 дБ -14.52 дБ 4:58 20-Orlando, HWV 31: Rec. 'È questa la mercede' / 19. Aria 'Cielo! se tu il consenti'DR13 -0.19 дБ -15.04 дБ 5:02 21-Orlando, HWV 31: Rec. 'A qual rischio vi espone' / 20. Aria 'Tra caligini profonde'DR14 -0.33 дБ -19.04 дБ 5:50 22-Orlando, HWV 31: Rec. 'Da queste amiche piante' / 21. Aria 'Verdi allori'DR11 0.00 дБ -14.53 дБ 5:38 23-Orlando, HWV 31: Rec. 'Dopo tanti perigli' / 22. Aria 'Non potrà dirmi ingrato' / Rec. 'Dove guidate'DR12 -0.20 дБ -16.15 дБ 7:28 24-Orlando, HWV 31: 23. Aria 'Verdi piante'DR11 -0.04 дБ -15.59 дБ 9:39 25-Orlando, HWV 31: Rec. 'Ah! perfida' / 24. Acc. 'Ah! stigie larve'DR11 -2.04 дБ -16.62 дБ 2:13 26-Orlando, HWV 31: 25. Sinfonia / Rec. 'Di Dorinda alle mura'DR12 -0.27 дБ -15.37 дБ 3:06 27-Orlando, HWV 31: 26. Aria 'Vorrei poterti amar'DR14 -0.32 дБ -18.27 дБ 3:55 28-Orlando, HWV 31: Rec. 'Più obbligata gli sono' / 27. Aria e Rec. 'Unisca amor in noi'DR12 -0.09 дБ -15.45 дБ 2:10 29-Orlando, HWV 31: 28. Già lo stringo'DR13 -0.13 дБ -15.84 дБ 5:44 30-Orlando, HWV 31: Rec. 'Di Dorinda all'albergo' / 29. Aria 'così giusta è questa speme'DR11 -0.27 дБ -15.24 дБ 5:34 31-Orlando, HWV 31: Rec. 'S'è corrisposto un core' / 30. Aria 'Amor è qual vento'DR11 -0.01 дБ -14.25 дБ 5:44 32-Orlando, HWV 31: Rec. 'Impari ogn'un da Orlando' / 32. Aria 'Sorge infausta une procella'DR11 -0.22 дБ -15.69 дБ 1:50 33-Orlando, HWV 31: Rec. 'Dorinda, e perchè piangi?'DR11 -0.20 дБ -15.90 дБ 4:42 34-Orlando, HWV 31: 33. Duetto 'Finchè predi ancora il sangue' / Rec. 'Vieni! Vanne precipitando' / 34. Acc.'Già per la man d'Orlando'DR14 -3.01 дБ -22.08 дБ 4:23 35-Orlando, HWV 31: 35. Arioso 'Già l'ebbro mio ciglio'DR13 -0.03 дБ -18.52 дБ 3:05 36-Orlando, HWV 31: Rec. 'Ecco il tempo prefisso' / 36. Acc. 'Tu, che dal gran Tonante' / 37. Sinfonia / Rec. 'Ah! che fate, Signor?'DR13 -0.12 дБ -17.26 дБ 3:49 37-Orlando, HWV 31: Rec. 'Dormo ancora, o son desso?' / 38. Duettino 'Per far, mia diletta' / Rec. 'Che vedo, oh Dei!'DR10 0.00 дБ -14.10 дБ 2:56 38-Orlando, HWV 31: 39. Acc. 'Vinse incanti' / 40. Coro 'Tronfa oggi'l mio cor'--------------------------------------------------------------------------------
Количество треков: 38Реальные значения DR: DR12Частота: 96000 ГцКаналов: 2Разрядность: 24Битрейт: 2816 кбит/сКодек: FLAC================================================================================

Скриншот спектра частот



Об альбоме (сборнике)

Grammy award winning conductor Rene Jacobs, “the most exciting opera conductor of the day” (Münchner Merkur), leads the dynamic B’Rock Orchestra Ghent and an outstanding cast in Handel’s most spectacular and ravishingly beautiful creations, Orlando.
Источник:



Ви не можете починати теми
Ви не можете відповідати на повідомлення
Ви не можете редагувати свої повідомлення
Ви не можете видаляти свої повідомлення
Ви не можете голосувати в опитуваннях
Ви не можете прикріплювати файли до повідомлень
Ви можете скачувати файли