[TR24][OF] Рахманинов — 10 прелюдий, соч. 23; 13 прелюдий, соч. 32; Прелюдия, соч. 3 № 2 (Николай Луганский) - 2018 (Classical)


Статистика роздачі [Оновити пиров]
Розмір:  1,01 GB   |    Зареєстрований:  1 рік   |    Скачано:  0 раз

Повного джерела не було: Ніколи

by Паночка ®
09-Бер-2018 20:16


[TR24][OF] Рахманинов — 10 прелюдий, соч. 23; 13 прелюдий, соч. 32; Прелюдия, соч. 3 № 2 (Николай Луганский) - 2018 (Classical)

Sergei Rachmaninov
24 Preludes

Harmonia Mundi · No. HMM902339 · 2018 · web
FLAC · 24 bit · 96 khz · 01:22:07 · booklet
___________________________________________
Nikolai Lugansky......................piano

Tracklist

01. Morceaux de fantaisie, Op. 3: No. 2. Prelude in C-Sharp Minor [4:48]
02-10. 10 Preludes, Op. 23: No. 1. Largo in F-Sharp Minor....................................[3:41] No. 2. Maestoso in B-Flat Major..................................[3:38] No. 3. Tempo di minuetto in D Minor..............................[3:54] No. 4. Andante cantabile in D Major..............................[4:59] No. 5. Alla marcia in G Minor....................................[4:05] No. 6. Andante in E-Flat Major...................................[3:03] No. 7. Allegro in C Minor........................................[2:29] No. 8. Allegro vivace in A-Flat Major............................[3:28] No. 9. Presto in E-Flat Minor....................................[1:59] No. 10. Largo in G-Flat Major....................................[4:06]
12-24. 13 Preludes, Op. 32: No. 1. Allegro vivace in C Major.................................[1:15] No. 2. Allegretto in B-Flat Minor................................[3:06] No. 3. Allegro vivace in E Major.................................[2:25] No. 4. Allegro con brio in E Minor...............................[5:56] No. 5. Moderato in G Major.......................................[3:22] No. 6. Allegro appassionato in F Minor...........................[1:22] No. 7. Moderato in F Major.......................................[2:26] No. 8. Vivo in A Minor...........................................[1:49] No. 9. Allegro in A Major........................................[3:02] No. 10. Lento in B Minor.........................................[6:07] No. 11. Allegretto in B Major....................................[2:33] No. 12. Allegro in G-Sharp Minor.................................[2:36] No. 13. Grave in D-Flat Major....................................[6:00]

Log

foobar2000 1.3.15 / Dynamic Range Meter 1.1.1log date: 2018-02-16 14:33:55
--------------------------------------------------------------------------------Analyzed: Nikolai Lugansky / Sergei Rachmaninov — 24 Preludes--------------------------------------------------------------------------------
DR Peak RMS Duration Track--------------------------------------------------------------------------------DR13 -1.37 dB -20.92 dB 4:48 01-Morceaux de fantaisie, Op. 3: No. 2. Prelude in C-Sharp MinorDR14 -6.29 dB -27.98 dB 3:41 02-10 Preludes, Op. 23: No. 1. Largo in F-Sharp MinorDR13 -1.51 dB -18.70 dB 3:38 03-10 Preludes, Op. 23: No. 2. Maestoso in B-Flat MajorDR14 -4.33 dB -24.78 dB 3:54 04-10 Preludes, Op. 23: No. 3. Tempo di minuetto in D MinorDR15 -4.88 dB -26.80 dB 4:59 05-10 Preludes, Op. 23: No. 4. Andante cantabile in D MajorDR12 -0.65 dB -18.94 dB 4:05 06-10 Preludes, Op. 23: No. 5. Alla marcia in G MinorDR14 -5.67 dB -27.55 dB 3:03 07-10 Preludes, Op. 23: No. 6. Andante in E-Flat MajorDR12 -3.88 dB -20.47 dB 2:29 08-10 Preludes, Op. 23: No. 7. Allegro in C MinorDR12 -7.03 dB -25.60 dB 3:28 09-10 Preludes, Op. 23: No. 8. Allegro vivace in A-Flat MajorDR12 -7.38 dB -24.62 dB 1:59 10-10 Preludes, Op. 23: No. 9. Presto in E-Flat MinorDR14 -9.11 dB -29.25 dB 4:06 11-10 Preludes, Op. 23: No. 10. Largo in G-Flat MajorDR12 -5.02 dB -21.12 dB 1:15 12-13 Preludes, Op. 32: No. 1. Allegro vivace in C MajorDR12 -6.17 dB -24.81 dB 3:06 13-13 Preludes, Op. 32: No. 2. Allegretto in B-Flat MinorDR11 -2.00 dB -18.39 dB 2:25 14-13 Preludes, Op. 32: No. 3. Allegro vivace in E MajorDR14 -2.13 dB -22.37 dB 5:56 15-13 Preludes, Op. 32: No. 4. Allegro con brio in E MinorDR13 -14.29 dB -32.70 dB 3:22 16-13 Preludes, Op. 32: No. 5. Moderato in G MajorDR12 -3.60 dB -20.49 dB 1:22 17-13 Preludes, Op. 32: No. 6. Allegro appassionato in F MinorDR13 -10.77 dB -29.59 dB 2:26 18-13 Preludes, Op. 32: No. 7. Moderato in F MajorDR12 -3.00 dB -21.65 dB 1:49 19-13 Preludes, Op. 32: No. 8. Vivo in A MinorDR13 -3.66 dB -23.50 dB 3:02 20-13 Preludes, Op. 32: No. 9. Allegro in A MajorDR13 -1.89 dB -23.24 dB 6:07 21-13 Preludes, Op. 32: No. 10. Lento in B MinorDR12 -11.40 dB -27.64 dB 2:33 22-13 Preludes, Op. 32: No. 11. Allegretto in B MajorDR14 -3.18 dB -23.55 dB 2:36 23-13 Preludes, Op. 32: No. 12. Allegro in G-Sharp MinorDR13 -0.30 dB -19.15 dB 6:00 24-13 Preludes, Op. 32: No. 13. Grave in D-Flat Major--------------------------------------------------------------------------------
Number of tracks: 24Official DR value: DR13
Samplerate: 96000 HzChannels: 2Bits per sample: 24Bitrate: 1767 kbpsCodec: FLAC================================================================================

Range

01. Morceaux de fantaisie, Op. 3 No. 2. Prelude in C-Sharp Minor.flac



Ви не можете починати теми
Ви не можете відповідати на повідомлення
Ви не можете редагувати свої повідомлення
Ви не можете видаляти свої повідомлення
Ви не можете голосувати в опитуваннях
Ви не можете прикріплювати файли до повідомлень
Ви можете скачувати файли