[TR24][OF] Bruckner — Symphony No. 3 [1888/89 version, Leopold Nowak]; Wagner — Tannhauser Overture (Gewandhausorchester, Andris Nelsons) - 2017 (Classical)


Статистика роздачі [Оновити пиров]
Розмір:  1,27 GB   |    Зареєстрований:  1 рік   |    Скачано:  0 раз

Повного джерела не було: Ніколи

by Паночка ®
09-Бер-2018 20:16


[TR24][OF] Bruckner — Symphony No. 3 [1888/89 version, Leopold Nowak]; Wagner — Tannhauser Overture (Gewandhausorchester, Andris Nelsons) - 2017 (Classical)

Bruckner • Symphony No. 3
Wagner • Tannhauser Overture

DG · No .4797208 · 2017 · web · trailer
FLAC · 24bit · 96khz · 01:15:53 · booklet
_________________________________________
Gewandhausorchester Leipzig..............
Andris Nelsons..................conductor

Tracklist

01-04. Bruckner: Symphony No.3 In D Minor, WAB 103: 1. Mehr langsam. Misterioso..................23:49 2. Adagio, bewegt, quasi Andante.............16:42 3. Ziemlich schnell - Trio....................7:03 4. Allegro...................................13:08
05. Wagner: Tannhäuser, WWV 70 - Overture.....15:11

Log

foobar2000 1.3.15 / Dynamic Range Meter 1.1.1log date: 2018-02-23 10:06:52
--------------------------------------------------------------------------------Analyzed: Gewandhausorchester Leipzig, Andris Nelsons / Bruckner — Symphony No. 3; Wagner — Tannhäuser Overture--------------------------------------------------------------------------------
DR Peak RMS Duration Track--------------------------------------------------------------------------------DR16 -0.05 dB -21.69 dB 23:49 01-Bruckner: Symphony No.3 In D Minor, WAB 103: 1. Mehr langsam. MisteriosoDR15 -2.13 dB -23.24 dB 16:42 02-Bruckner: Symphony No.3 In D Minor, WAB 103: 2. Adagio, bewegt, quasi AndanteDR13 -0.09 dB -19.08 dB 7:03 03-Bruckner: Symphony No.3 In D Minor, WAB 103: 3. Ziemlich schnell - TrioDR13 -0.14 dB -20.12 dB 13:08 04-Bruckner: Symphony No.3 In D Minor, WAB 103: 4. AllegroDR14 -0.14 dB -20.13 dB 15:11 05-Wagner: Tannhäuser, WWV 70 - Overture--------------------------------------------------------------------------------
Number of tracks: 5Official DR value: DR14
Samplerate: 96000 HzChannels: 2Bits per sample: 24Bitrate: 2462 kbpsCodec: FLAC================================================================================

Range

01 Bruckner — Symphony No.3 In D Minor, WAB 103 1. Mehr langsam. Misterioso.flac



Ви не можете починати теми
Ви не можете відповідати на повідомлення
Ви не можете редагувати свої повідомлення
Ви не можете видаляти свої повідомлення
Ви не можете голосувати в опитуваннях
Ви не можете прикріплювати файли до повідомлень
Ви можете скачувати файли