[TR24][OF] Bruckner — Symphony No. 4 \'Romantic\' [1878/80 version, Leopold Nowak]; Wagner — Lohengrin Prelude (Gewandhausorchester, Andris Nelsons) - 2018 (Classical)


Статистика роздачі [Оновити пиров]
Розмір:  1,32 GB   |    Зареєстрований:  1 рік   |    Скачано:  0 раз

Повного джерела не було: Ніколи

by Паночка ®
09-Бер-2018 20:16


[TR24][OF] Bruckner — Symphony No. 4 \'Romantic\' [1878/80 version, Leopold Nowak]; Wagner — Lohengrin Prelude (Gewandhausorchester, Andris Nelsons) - 2018 (Classical)

Bruckner • Symphony No. 4
Wagner • Lohengrin Prelude

DG · No .4797577 · 2018 · web · trailer
FLAC · 24bit · 96khz · 01:19:35 · booklet
_________________________________________
Gewandhausorchester Leipzig..............
Andris Nelsons..................conductor

Tracklist

01. Wagner: Lohengrin, WWV 75: Prelude To Act I.................9:27
02-05. Bruckner: Symphony No. 4 In E Flat Major "Romantic", WAB 104: 1. Bewegt, nicht zu schnell...................................19:55 2. Andante quasi allegretto...................................17:17 3. Scherzo....................................................10:54 4. Finale.....................................................22:02

Log

foobar2000 1.3.15 / Dynamic Range Meter 1.1.1log date: 2018-02-23 10:45:26
--------------------------------------------------------------------------------Analyzed: Gewandhausorchester Leipzig, Andris Nelsons / Bruckner — Symphony No. 4; Wagner — Lohengrin Prelude--------------------------------------------------------------------------------
DR Peak RMS Duration Track--------------------------------------------------------------------------------DR17 -0.06 dB -24.71 dB 9:27 01-Wagner: Lohengrin, WWV 75: Prelude To Act IDR13 0.00 dB -19.19 dB 19:55 02-Bruckner: Symphony No. 4 In E Flat Major "Romantic", WAB 104: 1. Bewegt, nicht zu schnellDR15 0.00 dB -22.83 dB 17:17 03-Bruckner: Symphony No. 4 In E Flat Major "Romantic", WAB 104: 2. Andante quasi allegrettoDR14 0.00 dB -20.91 dB 10:54 04-Bruckner: Symphony No. 4 In E Flat Major "Romantic", WAB 104: 3. ScherzoDR13 0.00 dB -19.71 dB 22:02 05-Bruckner: Symphony No. 4 In E Flat Major "Romantic", WAB 104: 4. Finale--------------------------------------------------------------------------------
Number of tracks: 5Official DR value: DR15
Samplerate: 96000 HzChannels: 2Bits per sample: 24Bitrate: 2371 kbpsCodec: FLAC================================================================================

Range

01 Wagner — Lohengrin, WWV 75 Prelude To Act I.flac



Ви не можете починати теми
Ви не можете відповідати на повідомлення
Ви не можете редагувати свої повідомлення
Ви не можете видаляти свої повідомлення
Ви не можете голосувати в опитуваннях
Ви не можете прикріплювати файли до повідомлень
Ви можете скачувати файли