[TR24][SM][OF] The Magic of Jascha Heifetz · Remastered · 1959-1968 (Classical)


Статистика роздачі [Оновити пиров]
Розмір:  1,98 GB   |    Зареєстрований:  1 рік   |    Скачано:  0 раз

Повного джерела не було: Ніколи

by Паночка ®
09-Бер-2018 20:16


[TR24][SM][OF] The Magic of Jascha Heifetz · Remastered · 1959-1968 (Classical)

·
·
Jascha Heifetz
(1901 – 1987)

Russian American classical violinist
Жанр: Miscellaneous
Носитель: Official Digital Download
Издание: 1959-1968
Переиздание: 2016 © RCA Red Seal
Номер по каталогу: 88875032242
Продолжительность: 03:19:16
Наличие сканов альбома: artwork
Контейнер: FLAC (*.flac)
Разрядность: 24/44,1
Количество каналов: 2.0
Формат: tracks
Источник: qobuz.com
Pелизер: WEB (thanks to the original customer)

Concertos

Henri Vieuxtemps
Violin Concerto No. 5 in A Minor Op. 37
01 I. Allegro non troppo 12:33
02 II. Adagio 03:36
03 III. Allegro con fuoco 01:13
Alexander Glazunov
Violin Concerto in A Minor, Op. 82
04 I. Moderato 04:00
05 II. Andante sostenuto 03:25
06 III. Più animato 06:04
07 IV. Allegro 05:34
Sergey Prokofiev
Violin Concerto No. 2 in G Minor Op. 63
08 I. Allegro moderato 09:02
09 II. Andante assai 08:00
10 III. Allegro ben marcato 06:06
·

Исполнители

Jascha Heifetz · violin
Sir Malcolm Sargent & New Symphony Orchestra of London
Walter Hendl & RCA Victor Symphony Orchestra
Charles Münch & Boston Symphony Orchestra

Dynamic Range Meter

foobar2000 1.3.17 / Dynamic Range Meter 1.1.1log date: 2018-02-23 23:15:42
--------------------------------------------------------------------------------Analyzed: Jascha Heifetz / The Magic of Jascha Heifetz--------------------------------------------------------------------------------
DR Peak RMS Duration Track--------------------------------------------------------------------------------DR13 -1.89 dB -19.80 dB 12:33 01-Violin Concerto No. 5 in A Minor, Op. 37: I. Allegro non troppo (Redbook Stereo)DR12 -1.37 dB -20.04 dB 3:36 02-Violin Concerto No. 5 in A Minor, Op. 37: II. Adagio (Redbook Stereo)DR10 -1.82 dB -17.66 dB 1:13 03-Violin Concerto No. 5 in A Minor, Op. 37: III. Allegro con fuoco (Redbook Stereo)DR16 -1.74 dB -25.40 dB 4:00 04-Violin Concerto in A Minor, Op. 82: I. ModeratoDR13 -6.33 dB -24.57 dB 3:25 05-Violin Concerto in A Minor, Op. 82: II. Andante sostenutoDR17 -0.74 dB -25.46 dB 6:04 06-Violin Concerto in A Minor, Op. 82: III. Più animatoDR13 -0.54 dB -19.53 dB 5:34 07-Violin Concerto in A Minor, Op. 82: IV. AllegroDR16 -0.09 dB -21.28 dB 9:02 08-Violin Concerto No. 2 in G Minor, Op. 63: I. Allegro moderatoDR13 -3.25 dB -22.86 dB 8:00 09-Violin Concerto No. 2 in G Minor, Op. 63: II. Andante assaiDR15 -0.28 dB -18.97 dB 6:06 10-Violin Concerto No. 2 in G Minor, Op. 63: III. Allegro ben marcato--------------------------------------------------------------------------------
Number of tracks: 10Official DR value: DR14
Samplerate: 44100 HzChannels: 2Bits per sample: 24Bitrate: 1436 kbpsCodec: FLAC================================================================================

Chamber Music

Felix Mendelssohn
String Octet in E-Flat Major Op. 20
01 I. Allegro moderato con fuoco 12:46
02 II. Andante 05:35
03 III. Scherzo-Allegro leggierissimo 04:19
04 IV. Presto 05:26
Anton Arensky
Piano Trio No. 1 in D Minor Op. 32
05 I. Allegro moderato 08:53
06 II. Scherzo-Allegro molto 05:34
07 III. Elegia-Adagio 05:36
08 IV. Finale-Allegro non troppo 05:31
Jean Françaix
Trio in C Major
09 I. Allegretto vivo 02:02
10 II. Scherzo-Vivo 02:27
11 III. Andante 02:59
12 IV. Rondo-Vivo 02:54
Ernst Toch
Divertimento Op. 37 No. 2
13 I. Flott und lustig 01:57
14 II. Adagio 03:27
15 III. Vivace molto 01:38
·

Исполнители

Jascha Heifetz · violin
Israel Baker · violin
Arnold Belnick · violin
Joseph Stepansky · violin
William Primrose · viola
Virginia Majewski · viola
Gabor Rejto · cello
Gregor Piatigorsky · cello
Leonard Pennario · piano
Joseph de Pasquale · viola

Dynamic Range Meter

foobar2000 1.3.17 / Dynamic Range Meter 1.1.1log date: 2018-02-23 23:27:56
--------------------------------------------------------------------------------Analyzed: Jascha Heifetz;Gregor Piatigorsky / The Magic of Jascha Heifetz (1-3) Jascha Heifetz;Israel Baker;Arnold Belnick;Joseph Stepansky;William Primrose;Virginia Majewski;Gregor Piatigorsky;Gabor Rejto / The Magic of Jascha Heifetz (4-7) Jascha Heifetz;Joseph Pasquale;Gregor Piatigorsky / The Magic of Jascha Heifetz (8-11) Jascha Heifetz;Leonard Pennario;Gregor Piatigorsky / The Magic of Jascha Heifetz (12-15)--------------------------------------------------------------------------------
DR Peak RMS Duration Track--------------------------------------------------------------------------------DR15 -0.30 dB -18.60 dB 1:57 13-Divertimento, Op. 37 No. 2: I. Flott und lustig (Remastered)DR13 -1.46 dB -22.02 dB 3:27 14-Divertimento, Op. 37 No. 2: II. Adagio (Remastered)DR14 -0.25 dB -17.64 dB 1:38 15-Divertimento, Op. 37 No. 2: III. Vivace molto (Remastered)DR11 -0.61 dB -16.62 dB 12:46 01-String Octet in E-Flat Major, Op. 20: I. Allegro moderato con fuoco (Remastered)DR12 -2.49 dB -21.09 dB 5:35 02-String Octet in E-Flat Major, Op. 20: II. Andante (Remastered)DR14 -6.79 dB -25.57 dB 4:19 03-String Octet in E-Flat Major, Op. 20: III. Scherzo-Allegro leggierissimo (Remastered)DR10 -1.28 dB -16.51 dB 5:26 04-String Octet in E-Flat Major, Op. 20: IV. Presto (Remastered)DR13 -4.06 dB -22.38 dB 2:02 09-Trio in C Major: Trio in C Major: I. Allegretto vivo (Remastered)DR13 -2.15 dB -20.30 dB 2:27 10-Trio in C Major: Trio in C Major: II. Scherzo-Vivo (Remastered)DR11 -8.13 dB -25.15 dB 2:59 11-Trio in C Major: Trio in C Major: III. Andante (Remastered)DR11 -0.56 dB -17.18 dB 2:54 12-Trio in C Major: Trio in C Major: IV. Rondo-Vivo (Remastered)DR14 -0.30 dB -19.66 dB 8:53 05-Piano Trio No. 1 in D Minor, Op. 32: I. Allegro moderato (Remastered)DR14 -0.31 dB -20.40 dB 5:34 06-Piano Trio No. 1 in D Minor, Op. 32: II. Scherzo-Allegro molto (Remastered)DR13 -8.80 dB -26.87 dB 5:36 07-Piano Trio No. 1 in D Minor, Op. 32: III. Elegia-Adagio (Remastered)DR13 -0.30 dB -18.12 dB 5:31 08-Piano Trio No. 1 in D Minor, Op. 32: IV. Finale-Allegro non troppo (Remastered)--------------------------------------------------------------------------------
Number of tracks: 15Official DR value: DR13
Samplerate: 44100 HzChannels: 2Bits per sample: 24Bitrate: 1375 kbpsCodec: FLAC================================================================================

Recital

Camille Saint-Saëns
Violin Sonata No. 1 in D Minor Op. 75
01 I. Allegro agitato-Adagio 12:22
02 II. Allegretto moderato-Allegro molto 09:23
Karen Khachaturian
Sonata for Violin & Piano in G Minor Op. 1
03 I. Allegro 06:03
04 II. Andante 04:12
05 III. Presto 05:23
George Gershwin
Porgy and Bess
06 Summertime 01:41
07 A Woman Is a Sometime Thing 01:43
08 My Man's Gone Now 03:48
09 It Ain't Necessarily So 02:26
10 Bess, You is My Woman Now 02:55
11 Tempo di Blues 02:52
Jean Sibelius
12 Belshazzar's Feast Op. 51 No. 3 : Nocturne (Arr. for Violin & Piano) 03:10
Henryk Wieniawski
13 Capriccio-Valse in E Major Op. 7 03:47
Manuel de Falla
7 Canciones populares Españolas
14 No. 5 : Nana (Arr. for Violin & Piano) 02:13
15 No. 4 : Jota (Arr. for Violin & Piano) 02:52
Claude Debussy
16 Beau soir L. 6 (Arr. for Violin and Piano) 02:06
Jacques Ibert
17 Histoires No. 2 : Le petit âne blanc 01:43
·

Исполнители

Jascha Heifetz · violin
Brooks Smith · piano
Lillian Steuber · piano

Dynamic Range Meter

foobar2000 1.3.17 / Dynamic Range Meter 1.1.1log date: 2018-02-23 23:40:09
--------------------------------------------------------------------------------Analyzed: Jascha Heifetz;Brooks Smith / The Magic of Jascha Heifetz (1-13) Jascha Heifetz;Lillian Steuber / The Magic of Jascha Heifetz (14-16) Jascha Heifetz / The Magic of Jascha Heifetz (17)--------------------------------------------------------------------------------
DR Peak RMS Duration Track--------------------------------------------------------------------------------DR14 -2.63 dB -22.88 dB 12:22 01-Violin Sonata No. 1 in D Minor, Op. 75: I. Allegro agitato-Adagio (Remastered)DR12 -3.00 dB -20.74 dB 9:23 02-Violin Sonata No. 1 in D Minor, Op. 75: II. Allegretto moderato-Allegro molto (Remastered)DR11 -5.45 dB -21.75 dB 1:41 06-Porgy and Bess: Summertime (Remastered)DR12 -3.14 dB -19.72 dB 1:43 07-Porgy and Bess: A Woman Is a Sometime Thing (Remastered)DR12 -2.68 dB -20.64 dB 3:48 08-Porgy and Bess: My Man's Gone Now (Remastered)DR12 -4.29 dB -21.65 dB 2:26 09-Porgy and Bess: It Ain't Necessarily So (Remastered)DR12 -5.62 dB -21.73 dB 2:55 10-Porgy and Bess: Bess, You is My Woman Now (Remastered)DR12 -3.77 dB -20.78 dB 2:52 11-Porgy and Bess: Tempo di Blues (Remastered)DR11 -4.41 dB -22.68 dB 3:10 12-Belshazzar's Feast, Op. 51: No. 3, Nocturne (Arr. for Violin & Piano) (Remastered)DR14 -5.37 dB -24.59 dB 3:47 13-Capriccio-Valse in E Major, Op. 7 (Remastered)DR11 -9.97 dB -29.13 dB 2:13 14-7 Canciones populares Españolas: No. 5, Nana (Arr. for Violin & Piano) (Remastered)DR12 -1.15 dB -20.19 dB 2:52 15-7 Canciones populares Españolas: No. 4, Jota (Arr. for Violin & Piano) (Remastered)DR14 -4.12 dB -22.86 dB 1:43 17-Histoires: No. 2, Le petit âne blanc (Remastered)DR10 -1.84 dB -16.61 dB 6:03 03-Sonata for Violin & Piano in G Minor, Op. 1: I. Allegro (Remastered)DR11 -4.72 dB -19.68 dB 4:12 04-Sonata for Violin & Piano in G Minor, Op. 1: II. Andante (Remastered)DR10 -0.99 dB -15.60 dB 5:23 05-Sonata for Violin & Piano in G Minor, Op. 1: III. Presto (Remastered)DR11 -8.35 dB -26.45 dB 2:06 16-Beau soir, L. 6 (Arr. for Violin and Piano) (Remastered)--------------------------------------------------------------------------------
Number of tracks: 17Official DR value: DR12
Samplerate: 44100 HzChannels: 2Bits per sample: 24Bitrate: 1280 kbpsCodec: FLAC================================================================================



Ви не можете починати теми
Ви не можете відповідати на повідомлення
Ви не можете редагувати свої повідомлення
Ви не можете видаляти свої повідомлення
Ви не можете голосувати в опитуваннях
Ви не можете прикріплювати файли до повідомлень
Ви можете скачувати файли