[TR24][OF] Beethoven — Triple Concerto, Op. 56; Trio for clarinet, cello and piano, Op. 11 (Anne Gastinel, Nicholas Angelich, Gil Shaham, Andreas Ottensamer, Frankfurt Radio Symphony, Paavo Jarvi) - 2018 (Classical)


Статистика роздачі [Оновити пиров]
Розмір:  553 MB   |    Зареєстрований:  1 рік   |    Скачано:  0 раз

Повного джерела не було: Ніколи

by Паночка ®
09-Бер-2018 20:16


[TR24][OF] Beethoven — Triple Concerto, Op. 56; Trio for clarinet, cello and piano, Op. 11 (Anne Gastinel, Nicholas Angelich, Gil Shaham, Andreas Ottensamer, Frankfurt Radio Symphony, Paavo Jarvi) - 2018 (Classical)

Beethoven
Triple Concerto • Trio Op. 11

Naïve · No. V 5418 · 2018 · web · trailer
FLAC · 24 bit · 48 khz · 00:55:06 · booklet
___________________________________________
Anne Gastinel.........................cello
Nicholas Angelich.....................piano
Gil Shaham...........................violin
Andreas Ottensamer.................clarinet
Frankfurt Radio Symphony...................
Paavo Järvi.......................conductor

Tracklist

01-03. Triple Concerto in C Major, Op. 56: I. Allegro..........................17:05 II. Largo............................4:07 III. Rondo all polacca..............12:36
04-06. Trio in B-Flat Major, Op. 11 "Gassenhauer": I. Allegro con brio..........................9:35 II. Adagio...................................5:01 III. Tema. Pria ch'io l'impegno. Allegretto..6:43

Log

foobar2000 1.3.15 / Dynamic Range Meter 1.1.1log date: 2018-02-24 19:47:45
--------------------------------------------------------------------------------Analyzed: Anne Gastinel, Nicholas Angelich, Gil Shaham, Andreas Ottensamer / Beethoven — Triple Concerto; Trio, Op. 11--------------------------------------------------------------------------------
DR Peak RMS Duration Track--------------------------------------------------------------------------------DR13 -0.26 dB -18.44 dB 17:05 01-Triple Concerto in C Major, Op. 56: I. AllegroDR13 -3.44 dB -23.88 dB 4:07 02-Triple Concerto in C Major, Op. 56: II. LargoDR13 -0.10 dB -17.67 dB 12:36 03-Triple Concerto in C Major, Op. 56: III. Rondo all polaccaDR14 -0.10 dB -19.70 dB 9:35 04-Trio in B-Flat Major, Op. 11 "Gassenhauer": I. Allegro con brioDR12 -4.87 dB -23.67 dB 5:01 05-Trio in B-Flat Major, Op. 11 "Gassenhauer": II. AdagioDR13 -1.40 dB -19.56 dB 6:43 06-Trio in B-Flat Major, Op. 11 "Gassenhauer": III. Tema. Pria ch'io l'impegno. Allegretto--------------------------------------------------------------------------------
Number of tracks: 6Official DR value: DR13
Samplerate: 48000 HzChannels: 2Bits per sample: 24Bitrate: 1306 kbpsCodec: FLAC================================================================================

Range

01. Triple Concerto in C Major, Op. 56 I. Allegro.flac



Ви не можете починати теми
Ви не можете відповідати на повідомлення
Ви не можете редагувати свої повідомлення
Ви не можете видаляти свої повідомлення
Ви не можете голосувати в опитуваннях
Ви не можете прикріплювати файли до повідомлень
Ви можете скачувати файли