[TR24][OF] Soleils de Nuit: Grieg, Clara Schumann, Vieru, Respighi, Britten, Hersant, Chopin, Debussy, Poulenc, Satie, Enesco, Strasnoy, Чайковский (Mara Dobresco) - 2018 (Classical)


Статистика роздачі [Оновити пиров]
Розмір:  968 MB   |    Зареєстрований:  1 рік   |    Скачано:  0 раз

Повного джерела не було: Ніколи

by Паночка ®
09-Бер-2018 20:16


[TR24][OF] Soleils de Nuit: Grieg, Clara Schumann, Vieru, Respighi, Britten, Hersant, Chopin, Debussy, Poulenc, Satie, Enesco, Strasnoy, Чайковский (Mara Dobresco) - 2018 (Classical)

Soleils de Nuit
Paraty · No. PTY107159 · 2018 · web-release
FLAC · 24 bit · 96 khz · 01:05:45 · booklet
___________________________________________
Mara Dobresco.........................piano

Tracklist

01. Grieg — Pièces lyriques, Op. 54: IV. Notturno                  4:2502. Clara Schumann — Soirées Musicales, Op. 6: II. Nocturne        4:5703. Schumann — Fantasiestücke, Op. 12: V. In der Nacht             3:5404. Vieru — Nuit                                                   1:1605. Respighi — 6 Pieces for Piano: III. Notturno                   4:2106. Britten — Night Piece (Notturno)                               5:0407. Hersant — Ephémères: IV. Dans l’air du soir                    2:0608. Lipatti — Nocturne en Fa Dièse Mineur                          5:1409. Hersant — Ephémères: VIII. Lune Voilée                         1:4910. Tchaikovsky — 6 Pieces, Op. 19: IV. Nocturne                   4:1511. Strasnoy — Piano 4: IV. Berceuse                               2:3312. Chopin — Nocturne No. 20 en Do Dièse Mineur, Op. posth         4:4313. Debussy — Nocturne, L. 82                                      5:5114. Debussy — Suite bergamasque, L. 75: III. Clair de Lune         4:2315. Poulenc — 8 Nocturnes, FP 56: VI. Très calme mais sans traîner 2:5916. Satie — Songe-Creux                                            1:4617. Enesco — Suite No. 3 for Piano, Op. 18: VII. Carillon nocturne 6:10

Log

foobar2000 1.3.15 / Dynamic Range Meter 1.1.1log date: 2018-02-19 14:56:42
--------------------------------------------------------------------------------Analyzed: Mara Dobresco / Soleils de Nuit--------------------------------------------------------------------------------
DR Peak RMS Duration Track--------------------------------------------------------------------------------DR15 -4.43 dB -27.32 dB 4:25 01-Grieg — Pièces lyriques, Op. 54: IV. NotturnoDR15 -2.27 dB -25.44 dB 4:57 02-Clara Schumann — Soirées Musicales, Op. 6: II. NocturneDR13 -0.14 dB -19.58 dB 3:54 03-Schumann — Fantasiestücke, Op. 12: V. In der NachtDR12 -14.27 dB -35.55 dB 1:16 04-Vieru — NuitDR15 -2.83 dB -25.12 dB 4:21 05-Respighi — 6 Pieces for Piano: III. NotturnoDR15 -4.07 dB -27.68 dB 5:04 06-Britten — Night Piece (Notturno)DR15 -8.90 dB -31.25 dB 2:06 07-Hersant — Ephémères: IV. Dans l’air du soirDR15 -8.59 dB -29.60 dB 5:14 08-Lipatti — Nocturne en Fa Dièse MineurDR15 -11.72 dB -32.16 dB 1:49 09-Hersant — Ephémères: VIII. Lune VoiléeDR13 -10.51 dB -29.06 dB 4:15 10-Tchaikovsky — 6 Pieces, Op. 19: IV. NocturneDR15 -10.89 dB -34.77 dB 2:33 11-Strasnoy — Piano 4: IV. BerceuseDR14 -11.48 dB -32.08 dB 4:43 12-Chopin — Nocturne No. 20 en Do Dièse Mineur, Op. posthDR14 -3.87 dB -25.03 dB 5:51 13-Debussy — Nocturne, L. 82DR15 -4.71 dB -27.59 dB 4:23 14-Debussy — Suite bergamasque, L. 75: III. Clair de LuneDR14 -3.15 dB -23.64 dB 2:59 15-Poulenc — 8 Nocturnes, FP 56: VI. Très calme mais sans traînerDR15 -5.60 dB -26.32 dB 1:46 16-Satie — Songe-CreuxDR16 -5.26 dB -28.92 dB 6:10 17-Enesco — Suite No. 3 for Piano, Op. 18: VII. Carillon nocturne--------------------------------------------------------------------------------
Number of tracks: 17Official DR value: DR14
Samplerate: 96000 HzChannels: 2Bits per sample: 24Bitrate: 2017 kbpsCodec: FLAC================================================================================

Range

01 Grieg — Pièces lyriques, Op. 54 IV. Notturno.flac



Ви не можете починати теми
Ви не можете відповідати на повідомлення
Ви не можете редагувати свої повідомлення
Ви не можете видаляти свої повідомлення
Ви не можете голосувати в опитуваннях
Ви не можете прикріплювати файли до повідомлень
Ви можете скачувати файли