[TR24][OF] Handel: Ottone, HWV 15 (Max Emanuel Cencic, Lauren Snouffer, Ann Hallenberg, Xavier Sabata, Pavel Kudinov, Anna Starushkevych/Il Pomo d\'Oro, George Petrou) - 2017 (Classical, Opera)


Статистика роздачі [Оновити пиров]
Розмір:  3,65 GB   |    Зареєстрований:  1 рік   |    Скачано:  0 раз

Повного джерела не було: Ніколи

by Паночка ®
09-Бер-2018 20:16


[TR24][OF] Handel: Ottone, HWV 15 (Max Emanuel Cencic, Lauren Snouffer, Ann Hallenberg, Xavier Sabata, Pavel Kudinov, Anna Starushkevych/Il Pomo d\'Oro, George Petrou) - 2017 (Classical, Opera)

GEORGE FRIDERIC HANDEL - OTTONE Формат записи/Источник записи: [TR24][OF]
Наличие водяных знаков: Нет
Год издания/переиздания диска: 2017
Жанр: Classical, Opera
Издатель (лейбл): Decca
Продолжительность: 03:22:00
Наличие сканов в содержимом раздачи: Буклет PDF+обложка
Контейнер: FLAC (*.flac)
Тип рипа: tracks
Разрядность: 24/96
Формат: PCM
Количество каналов: 2.0

Tracklist

01. Ouverture: Lentement - Allegro
02. Ouverture: [Gavotte]
ATTO PRIMO
03. Act I. N.1 Aria: Pur che regni il figlio amato
04. Chi più lieto è di me
05. N.2 Aria: La speranza è giunta in porto
06. Vien di Romano inclita figlia
07. N.3 Aria: Bel labbro formato per farmi beato
08. È tale Otton?
09. N.4 Aria: Falsa imagine, m'ingannasti
10. N.5 Concerto
11. Te, che assalir le nostre navi osasti
12. N.6 Aria: Del minacciar del vento si ride
13. Tutto a più liete cure
14. N.7 Aria: Ritorna, o dolce amore, conforta questo sen
15. Anch'io sperai
16. N.8 Aria: Di resti pui così
17. Tu la madre d'Otton?
18. N.9 Aria: Pensa ad amare
19. Adelaide, di cui con tanta lode; Indietro, indietro
20. Stenti la Bianca mano
21. Giunge Otton?
22. N.10 Aria: Affanni del pensier, un sol momento
23. N.11 Sinfonia
24. Cedi il ferro, o la vita
25. N.12 Aria: Tu puoi straziarmi
26. È di più mio rival?
27. N.13 Aria: Dell'onda ai fieri moti
ATTO SECONDO
28. Act II. N.14 Sinfonia
29. Per breve spazio a me colui
30. N.15 Aria: Lascia, che nel suo viso
31. Ah! che più non resisto
32. N.16 Aria: Ah! tu non sai quant'il mio cor sospira
33. Ben a ragion Matilda
34. N.17 Aria: Veni, o figlio
35. N.17.2 Aria: Spera simi dice il core
36. Quegli, è certo il mio sposo
37. N.18 Aria: All'orror d'un duolo eterno il mio amore
38. O illustre Teofane
39. N.19 Aria: Alla fama, dimmi il vero
40. Con gelosi sospetti
41. N.20 Aria: Dopo l'orrore
42. N.21 Acc: O grati orrori
43. N.22 Aria: S'io dir potessi al mio crudele
44. Del gran sasso
45. N.23 Aria: Le profonde vie dell'onde
46. Odo gente
47. N.24 Aria: Deh! non dir, che molle amante
48. Già d'ogni intorno
49. Odo il suono
50. N.25 Duetto: Notte cara
ATTO TERZO
51. Act III. N.26 Aria: Dove sei? Dolce mia vita!
52. Già t'invola
53. N.27 Aria: Trema, tiranno
54. N.28 Acc: lo son tradito
55. N.29 Aria: Tanti affanni
56. Empi, al vostro attentato
57. N.30 Aria: D'inalzar i flutti
58. Perchè in vita tornai
59. Temerario pirata
60. Si, mi traete alme
61. N.31 Aria: Benchè mi sia crudele
62. Deh! ti trattiene
63. N.32 Aria: No, non temere, o bella!
64. Pur cangiasti alla fin
65. N.33 Aria: Gode l'alma consolata
66. Uno de' servi miei
67. N.34 Aria: Nel suo sangue, e nel tuo pianto
68. Matilda, arresta si piede
69. Frena, crudel
70. N.35 Duetto: A' teneri affetti
71. Ma qual caso
72. N.36 Coro: Faccia ritorno l'antica pace
73. Appendix. N.6.2 Aria: Cervo altier
74. N.7b Aria: Io sperai trovar riposo
75. N.29b Aria: Un disprezzato affetto

Исполнители

Ottone - Max Emanuel CencicTeofane - Lauren SnoufferEmireno - Pavel KudinovGismonda - Ann HallenbergAdalberto - Xavier SabataMatilda - Anna Starushkevych
Il Pomo d'OroGeorge Petrou, conductor

Official DR value: DR14

foobar2000 1.3.14 / Замер динамического диапазона (DR) 1.1.1Дата отчёта:  2018-02-12 01:15:28
--------------------------------------------------------------------------------Анализ: Ann Hallenberg/Il Pomo d'Oro/Anna Starushkevych/Jakob Händel/Jakob Händel / Handel: Ottone (1-2) Ann Hallenberg/Il Pomo d'Oro/Jakob Händel/Jakob Händel / Handel: Ottone (3-8) Ann Hallenberg/Il Pomo d'Oro/Xavier Sabata/Jakob Händel/Jakob Händel / Handel: Ottone (9) Anna Starushkevych/Il Pomo d'Oro/Jakob Händel/Jakob Händel / Handel: Ottone (10-15) Anna Starushkevych/Il Pomo d'Oro/Max Cencic/Xavier Sabata/Ann Hallenberg/Lauren Snouffer/Pavel Kudinov/Jakob Händel/Jakob Händel / Handel: Ottone (16-17) Il Pomo d'Oro/Jakob Händel/Jakob Händel / Handel: Ottone (18-22) Il Pomo d'Oro/Max Cencic/Anna Starushkevych/Xavier Sabata/Lauren Snouffer/Jakob Händel/Jakob Händel / Handel: Ottone (23) Il Pomo d'Oro/Max Cencic/Anna Starushkevych/Xavier Sabata/Pavel Kudinov/Ann Hallenberg/Jakob Händel/Jakob Händel / Handel: Ottone (24) Lauren Snouffer/Il Pomo d'Oro/Ann Hallenberg/Jakob Händel/Jakob Händel / Handel: Ottone (25) Lauren Snouffer/Il Pomo d'Oro/Jakob Händel/Jakob Händel / Handel: Ottone (26-38) Lauren Snouffer/Il Pomo d'Oro/Pavel Kudinov/Jakob Händel/Jakob Händel / Handel: Ottone (39) Lauren Snouffer/Il Pomo d'Oro/Xavier Sabata/Ann Hallenberg/Jakob Händel/Jakob Händel / Handel: Ottone (40) Lauren Snouffer/Il Pomo d'Oro/Xavier Sabata/Jakob Händel/Jakob Händel / Handel: Ottone (41-42) Lauren Snouffer/Il Pomo d'Oro/Xavier Sabata/Pavel Kudinov/Jakob Händel/Jakob Händel / Handel: Ottone (43-44) Max Cencic/Il Pomo d'Oro/Ann Hallenberg/Jakob Händel/Jakob Händel / Handel: Ottone (45) Max Cencic/Il Pomo d'Oro/Anna Starushkevych/Ann Hallenberg/Jakob Händel/Jakob Händel / Handel: Ottone (46) Max Cencic/Il Pomo d'Oro/Anna Starushkevych/Jakob Händel/Jakob Händel / Handel: Ottone (47) Max Cencic/Il Pomo d'Oro/Anna Starushkevych/Lauren Snouffer/Jakob Händel/Jakob Händel / Handel: Ottone (48) Max Cencic/Il Pomo d'Oro/Jakob Händel/Jakob Händel / Handel: Ottone (49-60) Max Cencic/Il Pomo d'Oro/Lauren Snouffer/Jakob Händel/Jakob Händel / Handel: Ottone (61-63) Max Cencic/Il Pomo d'Oro/Pavel Kudinov/Jakob Händel/Jakob Händel / Handel: Ottone (64) Max Cencic/Il Pomo d'Oro/Xavier Sabata/Jakob Händel/Jakob Händel / Handel: Ottone (65) Pavel Kudinov/Il Pomo d'Oro/Jakob Händel/Jakob Händel / Handel: Ottone (66-69) Pavel Kudinov/Il Pomo d'Oro/Xavier Sabata/Jakob Händel/Jakob Händel / Handel: Ottone (70) Xavier Sabata/Il Pomo d'Oro/Anna Starushkevych/Jakob Händel/Jakob Händel / Handel: Ottone (71) Xavier Sabata/Il Pomo d'Oro/Jakob Händel/Jakob Händel / Handel: Ottone (72-75)--------------------------------------------------------------------------------
DR Пики RMS Продолжительность трека--------------------------------------------------------------------------------DR12 -0.99 дБ -17.87 дБ 3:21 01-Ottone, HWV 15 / Overture: a) Lentement - AllegroDR13 -2.15 дБ -19.19 дБ 1:21 02-Ottone, HWV 15 / Overture: b) GavotteDR16 -0.82 дБ -22.34 дБ 2:55 03-Ottone, HWV 15 / Act 1: 'Pur che regni il figlio amato'DR15 -3.00 дБ -24.83 дБ 2:21 04-Ottone, HWV 15 / Act 1: 'Chi più lieto è di me'DR15 -1.29 дБ -21.15 дБ 2:59 05-Ottone, HWV 15 / Act 1: 'La speranza è giunta in porto'DR13 -6.88 дБ -25.44 дБ 1:27 06-Ottone, HWV 15 / Act 1: 'Vien di Romano inclita figlia'DR14 -4.38 дБ -23.44 дБ 4:21 07-Ottone, HWV 15 / Act 1: 'Bel labbro formato per farmi beato'DR13 -4.52 дБ -24.18 дБ 1:09 08-Ottone, HWV 15 / Act 1: 'È tale Otton?'DR15 -0.48 дБ -23.58 дБ 6:35 09-Ottone, HWV 15 / Act 1: 'Falsa imagine, m’ingannasti'DR12 -5.40 дБ -23.20 дБ 2:33 10-Ottone, HWV 15 / Act 1: ConcertoDR14 -4.00 дБ -23.40 дБ 1:30 11-Ottone, HWV 15 / Act 1: 'Te, che assalir le nostre navi osasti'DR14 -3.92 дБ -21.45 дБ 4:03 12-Ottone, HWV 15 / Act 1: 'Del minacciar del vento si ride'DR16 -3.98 дБ -25.25 дБ 2:48 13-Ottone, HWV 15 / Act 1: 'Tutto a più liete cure'DR15 -5.40 дБ -25.59 дБ 4:15 14-Ottone, HWV 15 / Act 1: 'Ritorna, o dolce amore, conforta questo sen'DR12 -4.88 дБ -26.62 дБ 0:36 15-Ottone, HWV 15 / Act 1: 'Anch’io sperai'DR17 -0.97 дБ -24.26 дБ 6:05 16-Ottone, HWV 15 / Act 1: 'Di resti pui così'DR17 -4.77 дБ -25.09 дБ 1:58 17-Ottone, HWV 15 / Act 1: 'Tu la madre d’Otton?'DR17 -0.80 дБ -22.46 дБ 3:24 18-Ottone, HWV 15 / Act 1: 'Pensa ad amare'DR12 -8.31 дБ -26.82 дБ 1:01 19-Ottone, HWV 15 / Act 1: 'Adelaide, di cui con tanta lode; Indietro, indietro'DR15 -3.22 дБ -23.61 дБ 1:10 20-Ottone, HWV 15 / Act 1: 'Stenti la Bianca mano'DR14 -8.96 дБ -27.66 дБ 0:39 21-Ottone, HWV 15 / Act 1: 'Giunge Otton?'DR14 -6.08 дБ -25.13 дБ 7:14 22-Ottone, HWV 15 / Act 1: 'Affanni del pensier, un sol momento'DR12 -9.94 дБ -22.96 дБ 0:10 23-Ottone, HWV 15 / Act 1: SinfoniaDR13 -0.60 дБ -19.18 дБ 0:53 24-Ottone, HWV 15 / Act 1: 'Cedi il ferro, o la vita'DR13 -0.48 дБ -20.82 дБ 2:15 25-Ottone, HWV 15 / Act 1: 'Tu puoi straziarmi'DR13 0.00 дБ -19.39 дБ 0:48 26-Ottone, HWV 15 / Act 1: 'È di più mio rival?'DR13 -0.02 дБ -20.24 дБ 3:18 27-Ottone, HWV 15 / Act 1: 'Dell’onda ai fieri moti'DR12 -3.98 дБ -20.18 дБ 0:30 28-Ottone, HWV 15 / Act 2: SinfoniaDR15 -1.07 дБ -21.73 дБ 1:38 29-Ottone, HWV 15 / Act 2: 'Per breve spazio a me colui 'DR14 -5.10 дБ -26.58 дБ 3:24 30-Ottone, HWV 15 / Act 2: 'Lascia, che nel suo viso'DR18 -1.68 дБ -25.52 дБ 1:57 31-Ottone, HWV 15 / Act 2: 'Ah! che più non resisto'DR18 -3.78 дБ -26.36 дБ 5:07 32-Ottone, HWV 15 / Act 2: 'Ah! tu non sai quant’il mio cor sospira'DR14 -5.28 дБ -25.46 дБ 1:05 33-Ottone, HWV 15 / Act 2: 'Ben a ragion Matilda'DR15 -4.99 дБ -25.63 дБ 6:56 34-Ottone, HWV 15 / Act 2: 'Veni, o figlio'DR14 -6.46 дБ -23.69 дБ 5:11 35-Ottone, HWV 15 / Act 2: 'Spera simi dice'DR14 -6.47 дБ -24.91 дБ 2:44 36-Ottone, HWV 15 / Act 2: 'Quegli, è certo il mio sposo'DR16 -3.02 дБ -22.64 дБ 3:36 37-Ottone, HWV 15 / Act 2: 'All’orror d’un duolo eterno il mio amore'DR12 -3.65 дБ -23.54 дБ 1:24 38-Ottone, HWV 15 / Act 2: 'O illustre Teofane'DR16 -3.16 дБ -21.99 дБ 3:13 39-Ottone, HWV 15 / Act 2: 'Alla fama, dimmi il vero'DR12 -10.66 дБ -26.58 дБ 0:33 40-Ottone, HWV 15 / Act 2: 'Con gelosi sospetti'DR15 -2.69 дБ -22.33 дБ 5:18 41-Ottone, HWV 15 / Act 2: 'Dopo l’orrore'DR14 -4.13 дБ -22.97 дБ 2:29 42-Ottone, HWV 15 / Act 2: 'O grati orrori'DR15 -5.96 дБ -25.71 дБ 5:11 43-Ottone, HWV 15 / Act 2: 'S’io dir potessi al mio crudele'DR13 -6.47 дБ -25.52 дБ 1:09 44-Ottone, HWV 15 / Act 2: 'Del gran sasso'DR13 -5.67 дБ -21.89 дБ 2:10 45-Ottone, HWV 15 / Act 2: 'Le profonde vie dell’onde'DR14 -4.18 дБ -26.37 дБ 2:05 46-Ottone, HWV 15 / Act 2: 'Odo gente'DR16 -4.18 дБ -23.99 дБ 3:26 47-Ottone, HWV 15 / Act 2: 'Deh! non dir, che molle amante'DR13 -4.28 дБ -24.97 дБ 1:11 48-Ottone, HWV 15 / Act 2: 'Già d’ogni interno'DR15 -7.22 дБ -26.83 дБ 0:56 49-Ottone, HWV 15 / Act 2: 'Odo il suono'DR15 -2.00 дБ -21.79 дБ 4:25 50-Ottone, HWV 15 / Act 2: 'Notte cara'DR14 -3.10 дБ -22.55 дБ 4:13 51-Ottone, HWV 15 / Act 3: 'Dove sei? Dolce mia vita!'DR15 -2.90 дБ -23.37 дБ 1:54 52-Ottone, HWV 15 / Act 3: 'Già t’invola'DR15 -0.48 дБ -19.00 дБ 2:33 53-Ottone, HWV 15 / Act 3: 'Trema, tiranno'DR14 -2.06 дБ -22.93 дБ 1:27 54-Ottone, HWV 15 / Act 3: 'lo son tradito'DR16 -3.16 дБ -23.85 дБ 5:45 55-Ottone, HWV 15 / Act 3: 'Tanti affanni'DR13 -6.23 дБ -25.19 дБ 0:52 56-Ottone, HWV 15 / Act 3: 'Empi, al vostro attentato'DR16 -0.67 дБ -24.58 дБ 3:50 57-Ottone, HWV 15 / Act 3: 'D’inalzar i flutti'DR15 -3.05 дБ -25.15 дБ 1:06 58-Ottone, HWV 15 / Act 3: 'Perchè in vita tornai'DR14 -2.04 дБ -21.98 дБ 0:55 59-Ottone, HWV 15 / Act 3: 'Temerario pirata'DR13 -9.81 дБ -29.15 дБ 0:49 60-Ottone, HWV 15 / Act 3: 'Si, mi traete alme'DR13 -4.57 дБ -22.50 дБ 3:58 61-Ottone, HWV 15 / Act 3: 'Benchè mi sia crudele'DR13 -8.25 дБ -26.19 дБ 1:48 62-Ottone, HWV 15 / Act 3: 'Deh! ti trattiene'DR14 -5.40 дБ -22.70 дБ 3:27 63-Ottone, HWV 15 / Act 3: 'Nò, non temere, o bella!'DR12 -10.49 дБ -28.72 дБ 0:37 64-Ottone, HWV 15 / Act 3: 'Pur cangiasti alla fin'DR13 -5.96 дБ -23.82 дБ 4:27 65-Ottone, HWV 15 / Act 3: 'Gode l’alma consolata'DR16 -3.21 дБ -24.32 дБ 1:45 66-Ottone, HWV 15 / Act 3: 'Uno de’ servi miei'DR15 -1.55 дБ -22.70 дБ 2:33 67-Ottone, HWV 15 / Act 3: 'Nel suo sangue, e nel tuo pianto'DR15 -4.24 дБ -24.47 дБ 2:09 68-Ottone, HWV 15 / Act 3: 'Matilda, arresta si piede'DR13 -7.88 дБ -26.60 дБ 0:43 69-Ottone, HWV 15 / Act 3: 'Frena, crudel'DR15 -0.48 дБ -21.90 дБ 3:42 70-Ottone, HWV 15 / Act 3: 'A’ teneri affetti'DR13 -6.97 дБ -25.51 дБ 1:24 71-Ottone, HWV 15 / Act 3: 'Ma qual caso'DR12 -0.62 дБ -17.96 дБ 1:33 72-Ottone, HWV 15 / Act 3: 'Faccia ritorno l’antica pace'DR16 -0.48 дБ -22.88 дБ 4:21 73-Ottone, HWV 15 / Act 1: 'Cervo altier'DR16 -6.65 дБ -26.58 дБ 5:38 74-Ottone, HWV 15 / Act 1: 'Io sperai trovar riposo'DR19 -0.61 дБ -24.65 дБ 4:51 75-Ottone, HWV 15 / Act 3: 'Un disprezzato affetto'--------------------------------------------------------------------------------Количество треков: 75Реальные значения DR: DR14Частота: 96000 ГцКаналов: 2Разрядность: 24Битрейт: 2555 кбит/сКодек: FLAC================================================================================

Скриншот спектра частот



Об альбоме (сборнике)

Handel’s Ottone, re di Germania is presented here in a new recording by Max Emanuel Cencic and a superb cast, under the baton of George Petrou with Il Pomo d’Oro.
Premiered in London in 1723, Ottone was one of Handel’s most successful operas during his lifetime. This rare recording breathes new life into one of the master’s greatest works.
Also featuring three “bonus” arias performed in the 1726 revival.
Источник (релизер):



Ви не можете починати теми
Ви не можете відповідати на повідомлення
Ви не можете редагувати свої повідомлення
Ви не можете видаляти свої повідомлення
Ви не можете голосувати в опитуваннях
Ви не можете прикріплювати файли до повідомлень
Ви можете скачувати файли