[TR24][OF] Claude Debussy — Preludes, Book I & II; Etudes; Pour le piano, L. 95 (Monique Haas) - 1963/2018 (Classical)


Статистика роздачі [Оновити пиров]
Розмір:  1,89 GB   |    Зареєстрований:  1 рік   |    Скачано:  0 раз

Повного джерела не було: Ніколи

by Паночка ®
09-Бер-2018 20:16


[TR24][OF] Claude Debussy — Preludes, Book I & II; Etudes; Pour le piano, L. 95 (Monique Haas) - 1963/2018 (Classical)

Claude Debussy
Préludes I & II • Etudes

DG · No. 4798685 · 1963 / 2018 · web-release
FLAC · 24bit · 96khz · 02:12:03 · no booklet
____________________________________________
Monique Haas...........................piano

Tracklist

01-12. Préludes, Book 1, L.117: 1. Danseuses de Delphes                                     3:22 2. Voiles                                                   3:11 3. Le vent dans la plaine                                   2:14 4. Les sons et les parfums tournent dans l'air du soir      3:31 5. Les collines d'Anacapri                                  3:10 6. Des pas sur la neige                                     3:59 7. Ce qu'a vu le vent d'ouest                               3:13 8. La fille aux cheveux de lin                              2:46 9. La sérénade interrompue                                  2:29 10. La cathédrale engloutie                                 6:38 11. La danse de Puck                                        2:51 12. Minstrels                                               2:11
13-24. Préludes, Book 2, L.123: 1. Brouillards 2:56 2. Feuilles mortes 3:26 3. La puerta del vino 2:54 4. Les fées sont d'exquises danseuses 3:05 5. Bruyères 2:57 6. General Lavine-eccentric 2:25 7. La terrasse des audiences du clair de lune 4:16 8. Ondine 3:11 9. Hommage à S. Pickwick, Esq 2:29 10. Canope 3:10 11. Les tierces alternées 2:31 12. Feux d'artifice 4:11
25-36. 12 Etudes, L.136: 1. Pour les cinq doigts (d'après Monsieur Czerny) 2:41 2. Pour les Tierces 3:18 3. Pour les Quartes 5:15 4. Pour les Sixtes 4:09 5. Pour les Octaves 2:38 6. Pour les huit doigts 1:37 7. Pour les Degrés chromatiques 2:15 8. Pour les Agréments 4:32 9. Pour les Notes répétées 2:57 10. Pour les Sonorités opposées 5:33 11. Pour les Arpèges composés 3:46 12. Pour les Accords 4:03
37. Pour le piano, L. 95: 3. Toccata 3:5538. Préludes Book 1, L.117: 8. La fille aux cheveux de lin 2:5839. 12 Etudes, L.136: 6. Pour les huit doigts 1:2840. Préludes-Book 2, L.123: 12. Feux d'artifice 3:53

Log

foobar2000 1.3.15 / Dynamic Range Meter 1.1.1log date: 2018-02-26 19:37:26
--------------------------------------------------------------------------------Analyzed: Monique Haas / Préludes I & II. Etudes--------------------------------------------------------------------------------
DR Peak RMS Duration Track--------------------------------------------------------------------------------DR14 -10.50 dB -30.83 dB 3:22 01-Préludes, Book 1, L.117: 1. Danseuses de DelphesDR18 -2.14 dB -27.55 dB 3:11 02-Préludes, Book 1, L.117: 2. VoilesDR16 -3.45 dB -25.54 dB 2:14 03-Préludes, Book 1, L.117: 3. Le vent dans la plaineDR14 -9.62 dB -28.38 dB 3:31 04-Préludes, Book 1, L.117: 4. Les sons et les parfums tournent dans l'air du soirDR13 -1.83 dB -21.12 dB 3:10 05-Préludes, Book 1, L.117: 5. Les collines d'AnacapriDR16 -9.85 dB -33.85 dB 3:59 06-Préludes, Book 1, L.117: 6. Des pas sur la neigeDR13 -0.88 dB -17.42 dB 3:13 07-Préludes, Book 1, L.117: 7. Ce qu'a vu le vent d'ouestDR14 -6.76 dB -30.49 dB 2:46 08-Préludes, Book 1, L.117: 8. La fille aux cheveux de linDR17 -1.16 dB -24.32 dB 2:29 09-Préludes, Book 1, L.117: 9. La sérénade interrompueDR15 -0.32 dB -23.06 dB 6:38 10-Préludes, Book 1, L.117: 10. La cathédrale engloutieDR15 -4.80 dB -25.21 dB 2:51 11-Préludes, Book 1, L.117: 11. La danse de PuckDR14 -2.22 dB -22.42 dB 2:11 12-Préludes, Book 1, L.117: 12. MinstrelsDR18 -3.71 dB -28.43 dB 2:56 13-Préludes, Book 2, L.123: 1. BrouillardsDR16 -5.48 dB -30.42 dB 3:26 14-Préludes, Book 2, L.123: 2. Feuilles mortesDR15 -2.22 dB -24.65 dB 2:54 15-Préludes, Book 2, L.123: 3. La puerta del vinoDR14 -3.33 dB -23.18 dB 3:05 16-Préludes, Book 2, L.123: 4. Les fées sont d'exquises danseusesDR12 -7.59 dB -25.83 dB 2:57 17-Préludes, Book 2, L.123: 5. BruyèresDR13 -2.29 dB -21.25 dB 2:25 18-Préludes, Book 2, L.123: 6. General Lavine-eccentricDR18 -2.35 dB -27.59 dB 4:16 19-Préludes, Book 2, L.123: 7. La terrasse des audiences du clair de luneDR14 -6.43 dB -24.64 dB 3:11 20-Préludes, Book 2, L.123: 8. OndineDR14 -1.55 dB -21.11 dB 2:29 21-Préludes, Book 2, L.123: 9. Hommage à S. Pickwick, EsqDR14 -10.45 dB -31.03 dB 3:10 22-Préludes, Book 2, L.123: 10. CanopeDR14 -4.27 dB -26.28 dB 2:31 23-Préludes, Book 2, L.123: 11. Les tierces alternéesDR13 -1.60 dB -19.98 dB 4:11 24-Préludes, Book 2, L.123: 12. Feux d'artificeDR12 -3.47 dB -19.32 dB 2:41 25-12 Etudes, L.136: 1. Pour les cinq doigts (d'après Monsieur Czerny)DR11 -4.14 dB -19.15 dB 3:18 26-12 Etudes, L.136: 2. Pour les TiercesDR14 -4.54 dB -25.26 dB 5:15 27-12 Etudes, L.136: 3. Pour les QuartesDR13 -6.06 dB -24.80 dB 4:09 28-12 Etudes, L.136: 4. Pour les SixtesDR12 -2.47 dB -17.46 dB 2:38 29-12 Etudes, L.136: 5. Pour les OctavesDR12 -5.43 dB -21.40 dB 1:37 30-12 Etudes, L.136: 6. Pour les huit doigtsDR12 -5.97 dB -22.38 dB 2:15 31-12 Etudes, L.136: 7. Pour les Degrés chromatiquesDR12 -4.85 dB -22.12 dB 4:32 32-12 Etudes, L.136: 8. Pour les AgrémentsDR13 -5.06 dB -21.44 dB 2:57 33-12 Etudes, L.136: 9. Pour les Notes répétéesDR17 -4.14 dB -26.93 dB 5:33 34-12 Etudes, L.136: 10. Pour les Sonorités opposéesDR12 -0.94 dB -20.48 dB 3:46 35-12 Etudes, L.136: 11. Pour les Arpèges composésDR13 -2.02 dB -19.72 dB 4:03 36-12 Etudes, L.136: 12. Pour les AccordsDR9 -4.56 dB -16.88 dB 3:55 37-Pour le piano, L. 95: 3. ToccataDR13 -4.93 dB -24.07 dB 2:58 38-Préludes Book 1, L.117: 8. La fille aux cheveux de linDR8 -5.20 dB -17.04 dB 1:28 39-12 Etudes, L.136: 6. Pour les huit doigtsDR9 -3.91 dB -17.59 dB 3:53 40-Préludes-Book 2, L.123: 12. Feux d'artifice--------------------------------------------------------------------------------
Number of tracks: 40Official DR value: DR14
Samplerate: 96000 HzChannels: 2Bits per sample: 24Bitrate: 1280 kbpsCodec: FLAC================================================================================

Range

01 Préludes, Book 1, L.117 - 1. Danseuses de Delphes.flac



Ви не можете починати теми
Ви не можете відповідати на повідомлення
Ви не можете редагувати свої повідомлення
Ви не можете видаляти свої повідомлення
Ви не можете голосувати в опитуваннях
Ви не можете прикріплювати файли до повідомлень
Ви можете скачувати файли