[SACD-R][OF] (Classical, Double Bass, Organ) Gary Karr - Adagio D\'Albinoni - 2014 (Beethoven, Franck, Handel, J.S. Bach) - 2014


Статистика роздачі [Оновити пиров]
Розмір:  1,64 GB   |    Зареєстрований:  1 рік   |    Скачано:  0 раз

Повного джерела не було: Ніколи

by Паночка ®
09-Бер-2018 20:16


[SACD-R][OF] (Classical, Double Bass, Organ) Gary Karr - Adagio D\'Albinoni - 2014 (Beethoven, Franck, Handel, J.S. Bach) - 2014

Gary Karr / Adagio D'Albinoni
Формат записи/Источник записи: [SACD-R][OF]
Наличие водяных знаков: Нет
Год издания/переиздания диска: 2014
Жанр: Classical, Double Bass, Organ
Издатель (лейбл): King Records/Firebird
Продолжительность: 00:36:09
Наличие сканов в содержимом раздачи: Да (сканы)
Треклист:
Треклист:
01. Tomaso Albinoni, Remo Giazotto: Adagio in G minor (8:51)
02. Ludwig van Beethoven: Sonatina (4:46)
03. Cesar Franck: Piece No.V (5:57)
George Frideric Handel: Sonata No.9
04. I. Largo (3:39)
05. II. Alla breve (2:26)
06. III. Andante (4:06)
07. IV. Vivace (1:58)
08. Johann Sebastian Bach, Charles Gounod: Ave Maria (4:26)
Контейнер: ISO (*.iso)
Тип рипа: image
Разрядность: 64(2,8 MHz/1 Bit)
Формат: DSD
Количество каналов: 2.0

Лог проверки качества

foobar2000 1.3.10 / Dynamic Range Meter 1.1.1log date: 2018-03-07 20:00:06
--------------------------------------------------------------------------------Analyzed: Gary Karr / ADAGIO D' ALBINONI--------------------------------------------------------------------------------
DR Peak RMS Duration Track--------------------------------------------------------------------------------DR12 -3.76 dB -19.81 dB 8:52 01-ADAGIO IN G MINORDR11 -7.85 dB -24.65 dB 4:47 02-SONATINEDR12 -10.21 dB -26.60 dB 5:58 03-PIECE VDR11 -9.27 dB -23.84 dB 3:40 04-SONATE NO.9 IN B MINOR - LargoDR12 -8.83 dB -25.04 dB 2:26 05-SONATE NO.9 IN B MINOR - Alla breveDR10 -9.55 dB -23.55 dB 4:06 06-SONATE NO.9 IN B MINOR - AndanteDR11 -8.56 dB -22.32 dB 1:58 07-SONATE NO.9 IN B MINOR - VivaceDR11 -12.06 dB -29.07 dB 4:26 08-AVE MARIA--------------------------------------------------------------------------------
Number of tracks: 8Official DR value: DR11
Samplerate: 2822400 Hz / PCM Samplerate: 44100 HzChannels: 2Bits per sample: 1Bitrate: 5645 kbpsCodec: DSD64================================================================================
Источник (релизер): Discogs



Ви не можете починати теми
Ви не можете відповідати на повідомлення
Ви не можете редагувати свої повідомлення
Ви не можете видаляти свої повідомлення
Ви не можете голосувати в опитуваннях
Ви не можете прикріплювати файли до повідомлень
Ви можете скачувати файли