[SACD-R][OF] Krzysztof Penderecki — Horn Concerto & Violin Concerto No.1 (Kabara, Vlatkovic, Penderecki, Sinfonietta Cracovia) - 2010 (Classical/Orchestral/Violin/Horn)


Статистика роздачі [Оновити пиров]
Розмір:  3,14 GB   |    Зареєстрований:  1 рік   |    Скачано:  0 раз

Повного джерела не було: Ніколи

by Козак ®
09-Бер-2018 20:16


[SACD-R][OF] Krzysztof Penderecki — Horn Concerto & Violin Concerto No.1 (Kabara, Vlatkovic, Penderecki, Sinfonietta Cracovia) - 2010 (Classical/Orchestral/Violin/Horn)

Kabara, Vlatkovic, Penderecki, Sinfonietta Cracovia
Krzysztof Penderecki — Horn Concerto & Violin Concerto No.1
- Формат записи/Источник записи: [SACD-R][OF]
Наличие водяных знаков: Нет
Год издания/переиздания диска: 2010
Жанр: Classical/Orchestral/Violin/Horn
Издатель (лейбл): Channel Classics Records
Продолжительность: 00:59:23
Наличие сканов в содержимом раздачи: Буклет PDF-Треклист:
Krzysztof Penderecki
Concerto for violin and Orchestra No. 1
01] andante
02] lento
03] tempo di marcia
04] meno mosso
05] Concerto for horn and orchestra-Radovan Vlatkovic (horn)
Robert Kabara (violin)
Sinfonietta Cracovia
Krysztof Penderecki (conductor)-Контейнер: ISO (*.iso)
Тип рипа: image
Разрядность: 64(2,8 MHz/1 Bit)
Формат: DST64
Количество каналов: 5.0; 2.0-Доп. информация: Channel Classics CCS SA 30310
Recording type - DSD
SACD rip via PS3 to iso (3.13 GB)
Источник (релизер): PS³SACD
http://sa-cd.net/showtitle/6529

Лог DR

foobar2000 1.3.13 / Замер динамического диапазона (DR) 1.1.1Дата отчёта:  2017-04-30 13:54:10
--------------------------------------------------------------------------------Анализ: Sinfonietta Cracovia / Penderecki Concertos - Violin, Horn--------------------------------------------------------------------------------
DR Пики RMS Продолжительность трека--------------------------------------------------------------------------------DR14 0.00 дБ -21.38 дБ 12:34 01-Concerto for violin and OrchestraDR15 0.00 дБ -22.66 дБ 7:59 02-lentoDR16 0.00 дБ -23.27 дБ 11:16 03-tempo di marciaDR18 0.00 дБ -25.40 дБ 9:43 04-meno mossoDR18 0.00 дБ -23.66 дБ 17:36 05-Concerto for horn and orchestra--------------------------------------------------------------------------------
Количество треков: 5Реальные значения DR: DR16
Частота: 2822400 Гц / Частота PCM: 88200 ГцКаналов: 5Разрядность: 24Битрейт: 14112 кбит/сКодек: DST64================================================================================
--------------------------------------------------------------------------------Анализ: Sinfonietta Cracovia / Penderecki Concertos - Violin, Horn--------------------------------------------------------------------------------
DR Пики RMS Продолжительность трека--------------------------------------------------------------------------------DR11 0.00 дБ -17.00 дБ 12:33 01-Concerto for violin and OrchestraDR13 0.00 дБ -18.59 дБ 7:59 02-lentoDR13 0.00 дБ -19.15 дБ 11:17 03-tempo di marciaDR15 0.00 дБ -21.14 дБ 9:44 04-meno mossoDR15 0.00 дБ -19.97 дБ 17:35 05-Concerto for horn and orchestra--------------------------------------------------------------------------------
Количество треков: 5Реальные значения DR: DR13
Частота: 2822400 Гц / Частота PCM: 88200 ГцКаналов: 2Разрядность: 24Битрейт: 5645 кбит/сКодек: DST64================================================================================

Об альбоме (сборнике)

Site review by Graham Williams — March 9, 2011
Penderecki’s 1st Violin Concerto was written in 1976 for Isaac Stern who premiered the work and recorded it shortly afterwards for CBS with the Minnesota Orchestra under Stanislaw Skrowaczewski.
In the 1980s a second recording, conducted by the composer, appeared with Christiane Edinger as soloist. She had given the German premiere of the work in Stuttgart. Now 35 years on we have this phenomenal performance by Robert Kabara and Sinfonietta Cracovia recorded in state-of –the-art sound.
The work was the first example of Penderecki’s move away from his earlier avant-garde compositions, as represented by such pieces as ‘Threnody for the Victims of Hiroshima’ and his opera ‘The Devils of Loudun’, to a quasi late-romantic style influenced by, amongst others, the music of Bruckner.
Originally Penderecki intended to write a three or four movement work but settled on a single unbroken span lasting around 40 minutes. This does demand an exceptional degree of concentration from the listener. The concerto is a very personal piece written when the composer’s father was dying and its predominantly sombre mood is suffused with both tragedy and anguish. On this recording Channel have helpfully provided three index points that allow the listener, if they so wish, to become familiar with the piece by breaking it down into four sections. The soloist Robert Kabara copes magnificently with his formidable solo part and his playing throughout is supremely eloquent. Try the cadenza (track 4 from 2’30) to experience the sensitivity of his performance.Penderecki composed much of his music of the last thirty years at his house in the tranquil southern Polish village of Luslawice, a setting that has provided the inspiration for many pieces including this Horn Concerto; its title ’Winterreise’, suggested by the winter landscape of the beautiful countryside around his home.The Horn Concerto is an immediately attractive piece, and in its short span (17’34”) it encompasses a wide variety of moods from the Wagnerian depths of the opening (shades of Das Rheingold) through which the solo horn emerges like the Kraken arising from the deep, to the baroque energy of the faster sections with its echoes of hunting horn calls. The composer’s brilliant orchestration, always one of the strengths of his compositions, is evident in the constantly changing textures of the concerto and his imaginative use throughout of the harp and glockenspiel and percussion. The magnificent horn playing of Radovan Vlatkovic is well known from his many recordings and his virtuosity in this concerto is breathtaking.Penderecki has always been a fine conductor and interpreter of his own music and the Sinfonietta Cracovia respond enthusiastically to his direction with eloquent playing, so it is probably safe to assume that this superb new recording represents the composer’s definitive view of both of these concertos.This is an indispensable recording for all admirers of Penderecki’s music and deserves a top recommendation for both performance and sound quality.Copyright © 2011 Graham Williams and HRAudio.net



Ви не можете починати теми
Ви не можете відповідати на повідомлення
Ви не можете редагувати свої повідомлення
Ви не можете видаляти свої повідомлення
Ви не можете голосувати в опитуваннях
Ви не можете прикріплювати файли до повідомлень
Ви можете скачувати файли