[SACD-R][OF] Anton Bruckner – Symphony 8 C-moll (Netherlands Radio Philharmonic Orchestra, Jaap Van Zweden) - 2012 (Classical/Orchestral)


Статистика роздачі [Оновити пиров]
Розмір:  4,33 GB   |    Зареєстрований:  1 рік   |    Скачано:  0 раз

Повного джерела не було: Ніколи

by Козак ®
09-Бер-2018 20:16


[SACD-R][OF] Anton Bruckner – Symphony 8 C-moll (Netherlands Radio Philharmonic Orchestra, Jaap Van Zweden) - 2012 (Classical/Orchestral)

Anton Bruckner – Symphony 8 C-moll
Netherlands Radio Philharmonic Orchestra, Jaap Van Zweden
- Формат записи/Источник записи: [SACD-R][OF]
Наличие водяных знаков: Нет
Год издания/переиздания диска: 2012
Жанр: Classical/Orchestral
Издатель (лейбл): Challenge Classics
Продолжительность: 00:30:40+00:48:48-Треклист:
Anton Bruckner
Symphony 8 in c minor (1890)
SACD 1
1-Allegro Moderato
2-Scherzo
SACD 2
1-Adagio
2-Finale-Netherlands Radio Philharmonic Orchestra
Jaap Van Zweden, conductor-Контейнер: ISO (*.iso)
Тип рипа: image
Разрядность: 64(2,8 MHz/1 Bit)
Формат: DST64
Количество каналов: 5.1, 2.0-Доп. информация: Challenge Classics CC72549 (2012)
Recording type - DSD
Editing, Mixing, Recording Producer: Bert van der Wolf
2x SACD rips via PS3 to 2x iso (4.32GB)
Источник (релизер): ManWhoCan (PS³SACD)
http://sa-cd.net/showtitle/8094

Лог DR

foobar2000 1.3.10 / Замер динамического диапазона (DR) 1.1.1Дата отчёта:  2016-09-10 20:55:11
--------------------------------------------------------------------------------Анализ: Netherlands Radio Phylharmonic Orchestra/J.van Zweden / Symphonie NO. 8 C-moll Anton Bruckner--------------------------------------------------------------------------------
DR Пики RMS Продолжительность трека--------------------------------------------------------------------------------DR14 -6.37 дБ -29.89 дБ 16:02 01-I. Allegro moderatoDR15 -6.58 дБ -29.87 дБ 14:36 02-II. Scherzo. Allegro moderato--------------------------------------------------------------------------------
Количество треков: 2Реальные значения DR: DR15
Частота: 2822400 Гц / Частота PCM: 44100 ГцКаналов: 6Разрядность: 24Битрейт: 16934 кбит/сКодек: DST64================================================================================
--------------------------------------------------------------------------------Анализ: Netherlands Radio Phylharmonic Orchestra/J.van Zweden / Symphonie NO. 8 C-moll Anton Bruckner--------------------------------------------------------------------------------
DR Пики RMS Продолжительность трека--------------------------------------------------------------------------------DR14 -6.18 дБ -25.77 дБ 16:02 01-I. Allegro moderatoDR14 -6.17 дБ -25.65 дБ 14:36 02-II. Scherzo. Allegro moderato--------------------------------------------------------------------------------
Количество треков: 2Реальные значения DR: DR14
Частота: 2822400 Гц / Частота PCM: 44100 ГцКаналов: 2Разрядность: 24Битрейт: 5645 кбит/сКодек: DST64================================================================================
foobar2000 1.3.10 / Замер динамического диапазона (DR) 1.1.1Дата отчёта: 2016-09-10 21:24:32
--------------------------------------------------------------------------------Анализ: Netherlands Radio Phylharmonic Orchestra/J.van Zweden / Symphonie NO. 8 C-moll Anton Bruckner--------------------------------------------------------------------------------
DR Пики RMS Продолжительность трека--------------------------------------------------------------------------------DR18 -6.17 дБ -32.32 дБ 27:52 01-III. Adagio. Feierlich langsam; doch nicht schleppendDR14 -6.16 дБ -27.94 дБ 20:54 02-IV. Finale. Feierlich, nicht schnell--------------------------------------------------------------------------------
Количество треков: 2Реальные значения DR: DR16
Частота: 2822400 Гц / Частота PCM: 44100 ГцКаналов: 6Разрядность: 24Битрейт: 16934 кбит/сКодек: DST64================================================================================
--------------------------------------------------------------------------------Анализ: Netherlands Radio Phylharmonic Orchestra/J.van Zweden / Symphonie NO. 8 C-moll Anton Bruckner--------------------------------------------------------------------------------
DR Пики RMS Продолжительность трека--------------------------------------------------------------------------------DR16 -6.16 дБ -28.29 дБ 27:52 01-III. Adagio. Feierlich langsam; doch nicht schleppendDR12 -6.16 дБ -23.83 дБ 20:54 02-IV. Finale. Feierlich, nicht schnell--------------------------------------------------------------------------------
Количество треков: 2Реальные значения DR: DR14
Частота: 2822400 Гц / Частота PCM: 44100 ГцКаналов: 2Разрядность: 24Битрейт: 5645 кбит/сКодек: DST64================================================================================

Об альбоме (сборнике)

AllMusic:
On this 2012 SACD from Challenge, Jaap van Zweden performs Anton Bruckner’s Symphony 8 in C minor in the widely recorded 1890 version, edited by Leopold Nowak. Because it has become fashionable for conductors to perform the earliest versions of Bruckner’s symphonies, in a debatable effort to find “authentic” Bruckner, van Zweden’s choice of this late revision might suggest he’s bucking the trend, if not merely demonstrating his personal preference. In any case, van Zweden displays thorough knowledge of the symphony & absolute mastery of its pacing & structure, & his reading with the Netherlands Radio Philharmonic Orchestra reveals the work’s coherence & organic wholeness, as well as the fabulous skills of the musicians. The brass especially outdo themselves in the fullness of their blended sound & the warmth of their tone. Beyond the excellence of the interpretation & incandescence of the playing, this is 1 of the finest sounding SACD presentations available. The depth of the surround sound is extraordinary, & the vibrant presence of the orchestra puts the listener right in the front row. If the measure of a Bruckner performance can be taken from all these factors, this is an outstanding presentation & an indispensable recording that serious Brucknerians should own or at least hear several times.



Ви не можете починати теми
Ви не можете відповідати на повідомлення
Ви не можете редагувати свої повідомлення
Ви не можете видаляти свої повідомлення
Ви не можете голосувати в опитуваннях
Ви не можете прикріплювати файли до повідомлень
Ви можете скачувати файли