[SACD-R][OF] Dvorak – Symphonie Nr. 9 "Z noveho sveta"; Smetana – Die Moldau, Die verkaufte Braut (The Cleveland Orchestra, Christoph von Dohnanyi) - 1986, 1995/2005 (Classical/Orchestral)


Статистика роздачі [Оновити пиров]
Розмір:  4,19 GB   |    Зареєстрований:  1 рік   |    Скачано:  0 раз

Повного джерела не було: Ніколи

by Козак ®
09-Бер-2018 20:16


[SACD-R][OF] Dvorak – Symphonie Nr. 9 "Z noveho sveta"; Smetana – Die Moldau, Die verkaufte Braut (The Cleveland Orchestra, Christoph von Dohnanyi) - 1986, 1995/2005 (Classical/Orchestral)

The Cleveland Orchestra, Christoph von Dohnányi
Dvořák – Symphonie Nr. 9 "Z nového světa"
Smetana – Die Moldau, Die verkaufte Braut
- Формат записи/Источник записи: [SACD-R][OF]
Наличие водяных знаков: Нет
Год издания/переиздания диска: 1986, 1995/2005
Жанр: Classical/Orchestral
Издатель (лейбл): Decca
Продолжительность: 01:18:13
Наличие сканов в содержимом раздачи: Да (сканы)-Треклист:
Dvořák:
Symphonie Nr. 9 "Z nového světa":
1. I. Adagio – Allegro Molto [09:18]
2. II. Largo [11:51]
3. III. Scherzo. Molto Vivace [07:52]
4. IV. Allegro Con Fuoco [11:49]
5. Scherzo Capriccioso Op.66 [12:44]
Smetana:
6. Die Moldau [11:49]
Die verkaufte Braut
7. I. Polka [04:46]
8. II. Furiant [02:13]
9. III. Tanz Der Kom÷Dianten [05:51]-The Cleveland Orchestra
Christoph von Dohnányi (conductor)-Контейнер: ISO (*.iso)
Тип рипа: image
Разрядность: 64(2,8 MHz/1 Bit)
Формат: DST64
Количество каналов: 5.1 ONLY MULTICHANNEL; NO STEREO-Доп. информация: Decca / Eloquence 476 7826
Источник (релизер): grillbrill (PS³SACD)
http://sa-cd.net/showtitle/3169-

Лог DR

foobar2000 1.3.13 / Замер динамического диапазона (DR) 1.1.1Дата отчёта:  2017-04-28 22:07:10
--------------------------------------------------------------------------------Анализ: The Cleveland Orchestra / Dirigent: Christoph von Dohnбnyi / Dvorбk - Smetana--------------------------------------------------------------------------------
DR Пики RMS Продолжительность трека--------------------------------------------------------------------------------DR13 -1.02 дБ -22.67 дБ 9:16 01-Dvorбk: I. Adagio - Allegro molto [Symphonie Nr.9]DR17 -1.58 дБ -29.28 дБ 11:51 02-Dvorбk: II. Largo [Symphonie Nr.9]DR14 -1.59 дБ -24.30 дБ 7:52 03-Dvorбk: III. Scherzo. Molto vivace [Symphonie Nr.9]DR13 -1.55 дБ -21.85 дБ 11:42 04-Dvorбk: IV. Allegro con fuoco [Symphonie Nr.9]DR14 -1.09 дБ -23.39 дБ 12:38 05-Dvorбk: Scherzo capriccioso op.66DR14 0.00 дБ -23.33 дБ 11:43 06-Smetana: Die MoldauDR14 -0.17 дБ -23.31 дБ 4:44 07-Smetana: I. Polka [Die verkaufte Braut]DR12 -0.03 дБ -20.68 дБ 2:10 08-Smetana: II. Furiant [Die verkaufte Braut]DR13 0.00 дБ -22.02 дБ 5:51 09-Smetana: III. Tanz der Komцdianten [Die verkaufte Braut]--------------------------------------------------------------------------------
Количество треков: 9Реальные значения DR: DR14
Частота: 2822400 Гц / Частота PCM: 88200 ГцКаналов: 6Разрядность: 24Битрейт: 16934 кбит/сКодек: DST64================================================================================

Об альбоме (сборнике)

HRAudio.net Review
Christoph von Dohnányi recorded Dvorak’s last four symphonies for Decca during his tenure of the Cleveland Orchestra.
His performance of the New World Symphony was highly regarded in 1986 and perfectly illustrates the quality of his straightforward approach to these symphonies with his superbly disciplined orchestra.
My only caveat is that, like Fritz Reiner on Living Stereo, he omits the exposition repeat in the first movement, which does, to some extent, unbalance the work. Nevertheless, this is a most exciting performance with the Clevelanders on top form and benefiting from Decca’s excellent, if a trifle over-miked, recording quality.
The Scherzo capriccioso, (originally coupled with Symphony No. 8) which follows, is absolutely superb in every respect and alone worth the price of this disc.
The Smetana pieces are taken from a later disc Dohnányi made in 1996. It contained, besides the pieces given here, the overtures to The Kiss, Libuse and the Two Widows. It is a pity that these have gone, but presumably it is because Universal has aimed this disc more at the ‘popular classics’ market.
Vltava and the three excerpts from the Bartered Bride again are superbly played, but with a certain ruthless efficiency that excludes some of the charm often exhibited by native Czech performances of these pieces. Once again the performances do not lack excitement and it comes as quite a surprise when a lusty un-credited chorus, appears in the polka. A nice touch!
The re-mastering for SACD has been very successful. All the recordings are very clear and forward, typical of the Decca sound of the period from Cleveland and, although a touch over-bright at times, have plenty of detail and impact. The surround channels add some depth and bloom to the overall sound without unduly drawing attention to themselves.
It would be hard to resist 78 minutes of wonderful music, wonderfully played and recorded, and offered at budget price. Why not give it a try?
Copyright © 2005 Graham Williams and HRAudio.net



Ви не можете починати теми
Ви не можете відповідати на повідомлення
Ви не можете редагувати свої повідомлення
Ви не можете видаляти свої повідомлення
Ви не можете голосувати в опитуваннях
Ви не можете прикріплювати файли до повідомлень
Ви можете скачувати файли