[SACD-R][OF] Anton Bruckner — Symphony No. 5 in B flat WAB 105 (Nikolaus Harnoncourt, Wiener Philharmoniker) - 2003 (Classical/Orchestral)


Статистика роздачі [Оновити пиров]
Розмір:  4,34 GB   |    Зареєстрований:  1 рік   |    Скачано:  0 раз

Повного джерела не було: Ніколи

by Козак ®
09-Бер-2018 20:16


[SACD-R][OF] Anton Bruckner — Symphony No. 5 in B flat WAB 105 (Nikolaus Harnoncourt, Wiener Philharmoniker) - 2003 (Classical/Orchestral)

Nikolaus Harnoncourt, Wiener Philharmoniker
Anton Bruckner — Symphony No. 5 in B flat WAB 105
- Формат записи/Источник записи: [SACD-R][OF]
Наличие водяных знаков: Нет
Год издания/переиздания диска: 2003
Жанр: Classical/Orchestral
Издатель (лейбл): RCA
Продолжительность: 01:13:06
Наличие сканов в содержимом раздачи: Буклет PDF-Треклист:
Anton BrucknerSymphony No. 5 in B flat WAB 105:
1. Satz: Introduction: Adagio - Allegro
2. Satz: Adagio. Sehr langsam
3. Satz: Scherzo. Molto vivace (Schnell) - Trio. Im gleichen Tempo
4. Satz: Finale: Adagio - Allegro moderato-Wiener Philharmoniker
Nikolaus Harnoncourt-Контейнер: ISO (*.iso)
Тип рипа: image
Разрядность: 64(2,8 MHz/1 Bit)
Формат: DST64
Количество каналов: 5.1, 2.0-Доп. информация: 8287660749, BVCC-34119
RCA Red Seal (2004)
SACD rip via PS3 to iso (4.33GB)
В оригинальном комплекте к SACD прилагается CDDA с записью фрагментов репетиции. Рип этого диска можно найти в lossless раздаче этой записи
Источник (релизер): PS³SACD
http://sa-cd.net/showtitle/2748

Лог DR

foobar2000 1.3.13 / Замер динамического диапазона (DR) 1.1.1Дата отчёта:  2017-01-02 15:15:52
--------------------------------------------------------------------------------Анализ: ? / ?--------------------------------------------------------------------------------
DR Пики RMS Продолжительность трека--------------------------------------------------------------------------------DR14 -3.29 дБ -24.57 дБ 20:34 01-BruHarNrfDR14 -6.52 дБ -28.48 дБ 14:57 02-BruHarNrfDR14 -3.23 дБ -25.32 дБ 13:35 03-BruHarNrfDR15 -3.13 дБ -24.68 дБ 23:59 04-BruHarNrf--------------------------------------------------------------------------------
Количество треков: 4Реальные значения DR: DR14
Частота: 2822400 Гц / Частота PCM: 88200 ГцКаналов: 6Разрядность: 24Битрейт: 16934 кбит/сКодек: DST64================================================================================
--------------------------------------------------------------------------------Анализ: ? / ?--------------------------------------------------------------------------------
DR Пики RMS Продолжительность трека--------------------------------------------------------------------------------DR11 -4.84 дБ -21.28 дБ 20:34 01-BruHarNrfDR13 -4.98 дБ -24.99 дБ 14:57 02-BruHarNrfDR11 -4.86 дБ -22.01 дБ 13:35 03-BruHarNrfDR11 -4.68 дБ -21.37 дБ 23:59 04-BruHarNrf--------------------------------------------------------------------------------
Количество треков: 4Реальные значения DR: DR12
Частота: 2822400 Гц / Частота PCM: 88200 ГцКаналов: 2Разрядность: 24Битрейт: 5645 кбит/сКодек: DST64================================================================================

Об альбоме (сборнике)

HRAudio.net
eview by John Broggio - June 9, 2008
Coming in somewhere between Bruckner: Symphony No. 5 - Jaap van Zweden and Bruckner: Symphony No. 5 - Wand, this shows Harnoncourt to be working his way towards a convincing approach to Bruckner. Most details are well thought through, without detracting from the overall structure of this gargantuan work. A serious problem though is the reading of the slow movement - by no means can it be called "Sehr langsam", it doesn't really about qualify as an Adagio; when one feels that the arco string theme feels like a Länder, it is far too fast. This handicap aside, the rest is well presented by Harnoncourt and the Viennese players respond with considerable warmth. The second (non-SACD) disc will be of great interest to German speakers, where we are presented with extensive rehearsal excerpts of the rehearsals immediately preceding the set of concerts from which the SACD is derived - no texts or translations are provided however.
The sound is very faithful to that of the Wiener Philharmoniker when playing in the Musikverein. The relatively high level of resonance is like that in real life - a reflection perhaps that, good though it is, the hall really was designed for music from an era before Bruckner!
Copyright © 2008 John Broggio and HRAudio.net



Ви не можете починати теми
Ви не можете відповідати на повідомлення
Ви не можете редагувати свої повідомлення
Ви не можете видаляти свої повідомлення
Ви не можете голосувати в опитуваннях
Ви не можете прикріплювати файли до повідомлень
Ви можете скачувати файли