[SACD-R][OF] Richard Wagner - Parsifal; Ballet Scene from \'Tannhauser\'; Prelude Act III of \'Lohengrin\' - Neeme Jarvi - Royal Scottish National Orchestra - 2010 (Classical)


Статистика роздачі [Оновити пиров]
Розмір:  3,29 GB   |    Зареєстрований:  1 рік   |    Скачано:  0 раз

Повного джерела не було: Ніколи

by Козак ®
09-Бер-2018 20:16


[SACD-R][OF] Richard Wagner - Parsifal; Ballet Scene from \'Tannhauser\'; Prelude Act III of \'Lohengrin\' - Neeme Jarvi - Royal Scottish National Orchestra - 2010 (Classical)

Richard Wagner - Parsifal; Ballet Scene from 'Tannhauser'; Prelude Act III of 'Lohengrin' / Neeme Järvi - Royal Scottish National Orchestra
Формат записи/Источник записи: [SACD-R][OF]
Наличие водяных знаков: Нет
Год издания/переиздания диска: 2010
Жанр: Classical
Издатель (лейбл): Chandos - CHSA 5077
Продолжительность: 01:09:21 + 01:09:21
Наличие сканов в содержимом раздачи: Только обложка альбома
Контейнер: ISO (*.iso)
Тип рипа: image
Разрядность: 64(2,8 MHz/1 Bit)
Формат: DST64
Количество каналов: 2.0; 5.0

Треклист:

Richard Wagner (1813-1883)
Parsifal, an orchestral quest (45:56)Arranged 1993 by Henk de Vlieger (b. 1953)
1. 1-Vorspiel. Sehr langsam - 9:212. 2-Parsifal. Mäßig belebt - Schnell - Immer langsamer - 2:413. 3-Die Gralsritter I. Langsam und feierlich - 7:504. 4-Die Blumenmädchen. Lebhaft - Ruhiger - Wieder lebhaft - 6:595. 5-Karfreitagszauber. Feierlich bewegt - Nicht schleppen - Sehr langsam - 9:316. 6-Die Gralsritter II. [ ] - Immer feierlich das Zeitmaß zurückhaltend - 3:057. 7-Nachspiel. Breit - Sehr langsam und feierlich - 6:28
Overture and Venusberg ballet scene from 'Tannhäuser' (19:53)Vienna version, 1875
8. Overture. Andante maestoso - 4:009. Allegro - Molto vivace - 5:1510. Venusberg ballet scene. [L'istesso tempo] - Molto moderato - 10:37
'Lohengrin' (3:28)
11. Prelude to Act III of 'Lohengrin' - 3:28Concert version, Sehr lebhaft

DR Log

foobar2000 1.3.14 / Dynamic Range Meter 1.1.1log date: 2017-05-03 17:19:01
--------------------------------------------------------------------------------Analyzed: Royal Scottish National Orchestra conducted by Neeme Jдrvi / Parsifal - An Orchestral Quest--------------------------------------------------------------------------------
DR Peak RMS Duration Track--------------------------------------------------------------------------------DR14 -12.27 dB -36.25 dB 9:22 01-Parsifal : An Orchestral Quest. 1. VorspielDR12 -14.01 dB -35.76 dB 2:42 02-Parsifal : An Orchestral Quest. 2. ParsifalDR14 -6.11 dB -30.73 dB 7:51 03-Parsifal : An Orchestral Quest. 3. Die Gralsritter (I)DR16 -11.68 dB -37.97 dB 6:59 04-Parsifal : An Orchestral Quest. 4. Die BlumenmдdchenDR16 -10.26 dB -37.22 dB 9:31 05-Parsifal : An Orchestral Quest. 5. KarfreitagzauberDR13 -7.84 dB -30.75 dB 3:05 06-Parsifal : An Orchestral Quest. 6. Die Gralsritter (II)DR14 -12.60 dB -35.50 dB 6:28 07-Parsifal : An Orchestral Quest. 7. NachspielDR11 -6.52 dB -28.85 dB 4:00 08-Tannhдuser : Overture. Andante maestoso -DR13 -11.02 dB -31.74 dB 5:15 09-Tannhдuser : Overture continued. Allegro -DR13 -7.73 dB -29.87 dB 10:37 10-Tannhдuser : Venusberg Ballet SceneDR11 -6.43 dB -26.71 dB 3:30 11-Prelude to Act III of Lohengrin--------------------------------------------------------------------------------
Number of tracks: 11Official DR value: DR13
Samplerate: 2822400 Hz / PCM Samplerate: 88200 HzChannels: 5Bits per sample: 1Bitrate: 14112 kbpsCodec: DST64================================================================================
--------------------------------------------------------------------------------Analyzed: Royal Scottish National Orchestra conducted by Neeme Jдrvi / Parsifal - An Orchestral Quest--------------------------------------------------------------------------------
DR Peak RMS Duration Track--------------------------------------------------------------------------------DR14 -11.96 dB -33.70 dB 9:22 01-Parsifal : An Orchestral Quest. 1. VorspielDR13 -14.49 dB -32.98 dB 2:42 02-Parsifal : An Orchestral Quest. 2. ParsifalDR15 -6.18 dB -28.18 dB 7:51 03-Parsifal : An Orchestral Quest. 3. Die Gralsritter (I)DR16 -11.94 dB -35.24 dB 6:59 04-Parsifal : An Orchestral Quest. 4. Die BlumenmдdchenDR17 -10.02 dB -34.52 dB 9:31 05-Parsifal : An Orchestral Quest. 5. KarfreitagzauberDR13 -8.00 dB -28.20 dB 3:05 06-Parsifal : An Orchestral Quest. 6. Die Gralsritter (II)DR14 -12.45 dB -32.70 dB 6:28 07-Parsifal : An Orchestral Quest. 7. NachspielDR11 -6.19 dB -25.54 dB 4:00 08-Tannhдuser : Overture. Andante maestoso -DR13 -10.90 dB -29.05 dB 5:15 09-Tannhдuser : Overture continued. Allegro -DR13 -7.93 dB -27.10 dB 10:37 10-Tannhдuser : Venusberg Ballet SceneDR12 -6.41 dB -23.77 dB 3:30 11-Prelude to Act III of Lohengrin--------------------------------------------------------------------------------
Number of tracks: 11Official DR value: DR14
Samplerate: 2822400 Hz / PCM Samplerate: 88200 HzChannels: 2Bits per sample: 1Bitrate: 5645 kbpsCodec: DST64================================================================================
Доп. информация: Recorded at Royal Concert Hall, Glasgow 18 and 19 August 2009.
DSD recording.
Источник (релизер): SACD rip via PS3 to iso (PS³SACD)
https://www.chandos.net/products/catalogue/CHAN%205077
http://www.sa-cd.net/showtitle/6456



Ви не можете починати теми
Ви не можете відповідати на повідомлення
Ви не можете редагувати свої повідомлення
Ви не можете видаляти свої повідомлення
Ви не можете голосувати в опитуваннях
Ви не можете прикріплювати файли до повідомлень
Ви можете скачувати файли