(Art Rock / Experimental Rock) [LP] [24/96] Jack White - Boarding House Reach - 2018, FLAC (tracks), lossless


Статистика роздачі [Оновити пиров]
Розмір:  918 MB   |    Зареєстрований:  3 дня   |    Скачано:  0 раз

Повного джерела не було: Ніколи

by Козак ®
16-Кві-2019 03:15


(Art Rock / Experimental Rock) [LP] [24/96] Jack White - Boarding House Reach - 2018, FLAC (tracks), lossless

Jack White / Boarding House Reach
Жанр: Rock
Носитель: LP
Год выпуска: 2018
Лейбл: Third Man Records
Аудио кодек: FLAC
Тип рипа: tracks
Формат раздачи: 24/96
Продолжительность: 00:44:11
Треклист:
A1. Connected By Love {04:38}
A2. Why Walk A Dog? {02:29}
A3. Corporation {05:39}
A4. Abulia And Akrasia {01:28}
A5. Hypermisophoniac {03:35}
A6. Ice Station Zebra {03:59}
B7. Over And Over And Over {03:36}
B8. Everything You’ve Ever Learned {02:13}
B9. Respect Commander {04:34}
B10. Ezmerelda Steals The Show {01:43}
B11. Get In The Mind Shaft {04:13}
B12. What’s Done Is Done {02:55}
B13. Humoresque {03:09}
Источник оцифровки: третьим лицом
Код класса состояния винила: Mint

Tech

--------------------------------------------------------------------------------
Анализ:   Jack White / Boarding House Reach
--------------------------------------------------------------------------------
DR         Пики         RMS           Продолжительность трека
--------------------------------------------------------------------------------
DR10      -0.46 дБ   -14.51 дБ      4:38 A1-Connected By Love
DR11      -1.53 дБ   -15.83 дБ      2:29 A2-Why Walk A Dog?
DR11      -0.70 дБ   -14.16 дБ      5:39 A3-Corporation
DR12      -3.64 дБ   -19.29 дБ      1:28 A4-Abulia And Akrasia
DR12      -1.30 дБ   -16.90 дБ      3:35 A5-Hypermisophoniac
DR12      -0.49 дБ   -15.82 дБ      3:59 A6-Ice Station Zebra
DR11      -0.39 дБ   -13.67 дБ      3:36 B7-Over And Over And Over
DR11      -0.25 дБ   -16.39 дБ      2:13 B8-Everything You’ve Ever Learned
DR11      -0.39 дБ   -15.70 дБ      4:34 B9-Respect Commander
DR13      -5.80 дБ   -21.88 дБ      1:43 B10-Ezmerelda Steals The Show
DR11      -1.51 дБ   -15.90 дБ      4:13 B11-Get In The Mind Shaft
DR12      -1.30 дБ   -16.82 дБ      2:55 B12-What’s Done Is Done
DR13      -1.28 дБ   -19.31 дБ      3:09 B13-Humoresque
--------------------------------------------------------------------------------
Количество треков: 13
Реальные значения DR: DR12
Частота:   96000 Гц
Каналов:   2
Разрядность:   24
Битрейт:   2618 кбит/с
Кодек:   FLAC



Ви не можете починати теми
Ви не можете відповідати на повідомлення
Ви не можете редагувати свої повідомлення
Ви не можете видаляти свої повідомлення
Ви не можете голосувати в опитуваннях
Ви не можете прикріплювати файли до повідомлень
Ви можете скачувати файли