[SACD-R][OF] Richard Wagner - Die Meistersinger von Nurnberg; Sigfried - Idyll; Gotterdammerung - Ivan Fischer - Budapest Festival Orchestra, Petra Lang - 2013 (Classical)


Статистика роздачі [Оновити пиров]
Розмір:  3,56 GB   |    Зареєстрований:  1 рік   |    Скачано:  0 раз

Повного джерела не було: Ніколи

by Козак ®
09-Бер-2018 20:16


[SACD-R][OF] Richard Wagner - Die Meistersinger von Nurnberg; Sigfried - Idyll; Gotterdammerung - Ivan Fischer - Budapest Festival Orchestra, Petra Lang - 2013 (Classical)

Richard Wagner - Die Meistersinger von Nurnberg; Sigfried - Idyll; Götterdämmerung / Iván Fischer - Budapest Festival Orchestra, Petra Lang
Формат записи/Источник записи: [SACD-R][OF]
Наличие водяных знаков: Нет
Год издания/переиздания диска: 2013
Жанр: Classical
Издатель (лейбл): Channel Classics - CCS SA 32713
Продолжительность: 01:04:17
Наличие сканов в содержимом раздачи: Буклет PDF
Треклист:
Richard Wagner (1813 – 1883)
1. Die Meistersinger von Nurnberg: Prelude (9:59)
2. Sigfried: Idyll (17:47)
Götterdämmerung
3. 1-Dawn and Sigfried's Rhine Journey (9:42)
4. 2-Siegfried's Funeral March (8:17)
5. 3-Immolation scene (18:32)
Контейнер: ISO (*.iso)
Тип рипа: image
Разрядность: 64(2,8 MHz/1 Bit)
Формат: DST64
Количество каналов: 2.0; 5.0

DR Log

foobar2000 1.3.14 / Dynamic Range Meter 1.1.1log date: 2017-05-07 21:55:16
--------------------------------------------------------------------------------Analyzed: Budapest Festival Orchestra / Wagner--------------------------------------------------------------------------------
DR Peak RMS Duration Track--------------------------------------------------------------------------------DR14 -6.32 dB -27.59 dB 9:51 01-Wagner - Die Meistersinger von NurnbergDR15 -12.78 dB -36.98 dB 17:39 02-Wagner - Siegfried IdyllDR14 -10.07 dB -32.24 dB 9:40 03-Wagner - Gotterdammerung - Dawn and Siegfried's Rhine JourneyDR14 -7.10 dB -28.99 dB 8:18 04-Wagner - Gotterdammerung - Siegfried's Funeral MarchDR15 -6.51 dB -29.19 dB 18:35 05-Wagner - Gotterdammerung - Immolation scene--------------------------------------------------------------------------------
Number of tracks: 5Official DR value: DR14
Samplerate: 2822400 Hz / PCM Samplerate: 88200 HzChannels: 5Bits per sample: 1Bitrate: 14112 kbpsCodec: DST64================================================================================
--------------------------------------------------------------------------------Analyzed: Budapest Festival Orchestra / Wagner--------------------------------------------------------------------------------
DR Peak RMS Duration Track--------------------------------------------------------------------------------DR14 -5.28 dB -25.02 dB 9:50 01-Wagner - Die Meistersinger von NurnbergDR15 -11.83 dB -33.87 dB 17:39 02-Wagner - Siegfried IdyllDR14 -7.70 dB -29.63 dB 9:41 03-Wagner - Gotterdammerung - Dawn and Siegfried's Rhine JourneyDR14 -5.32 dB -26.45 dB 8:18 04-Wagner - Gotterdammerung - Siegfried's Funeral MarchDR14 -5.13 dB -26.45 dB 18:35 05-Wagner - Gotterdammerung - Immolation scene--------------------------------------------------------------------------------
Number of tracks: 5Official DR value: DR14
Samplerate: 2822400 Hz / PCM Samplerate: 88200 HzChannels: 2Bits per sample: 1Bitrate: 5645 kbpsCodec: DST64================================================================================
Источник (релизер): SACD rip via PS3 to iso (PS³SACD)
http://www.sa-cd.net/showtitle/8779
https://musicbrainz.org/release/b58d2826-79b9-4a1f-86bf-41db4a28cd98



Ви не можете починати теми
Ви не можете відповідати на повідомлення
Ви не можете редагувати свої повідомлення
Ви не можете видаляти свої повідомлення
Ви не можете голосувати в опитуваннях
Ви не можете прикріплювати файли до повідомлень
Ви можете скачувати файли