[SACD-R][OF] Richard Wagner - Preludes & Overtures (Der fliegende Hollander; Rienzi; Die Meistersinger von Nurnberg; Tannhauser; Tristan und Isolde) - Yakov Kreizberg - Netherlands Philharmonic Orchestra - 2004 (Classical)


Статистика роздачі [Оновити пиров]
Розмір:  4,07 GB   |    Зареєстрований:  1 рік   |    Скачано:  0 раз

Повного джерела не було: Ніколи

by Козак ®
09-Бер-2018 20:16


[SACD-R][OF] Richard Wagner - Preludes & Overtures (Der fliegende Hollander; Rienzi; Die Meistersinger von Nurnberg; Tannhauser; Tristan und Isolde) - Yakov Kreizberg - Netherlands Philharmonic Orchestra - 2004 (Classical)

Richard Wagner - Preludes & Overtures (Der fliegende Hollander; Rienzi; Die Meistersinger von Nurnberg; Tannhauser; Tristan und Isolde) / Yakov Kreizberg - Netherlands Philharmonic Orchestra
Формат записи/Источник записи: [SACD-R][OF]
Наличие водяных знаков: Нет
Год издания/переиздания диска: 2004
Жанр: Classical
Издатель (лейбл): PentaTone Classics - PTC 5186 041
Продолжительность: 01:15:01
Наличие сканов в содержимом раздачи: Буклет PDF
Контейнер: ISO (*.iso)
Тип рипа: image
Разрядность: 64(2,8 MHz/1 Bit)
Формат: DST64
Количество каналов: 2.0; 5.0

Треклист:

Richard Wagner (1813 – 1883)
Der fliegende Hollander (The Flying Dutchman):
1 Overture 11:30
Rienzi:
2 Overture 12:52
Die Meistersinger von Nurnberg, Act I
3 Prelude 11:12
Tannhauser:
4 Overture 15:11
Lohengrin, Act I:
5 Prelude 03:10
Tristan und Isolde:
6 I. Prelude 13:077 II. Liebestod 07:07

DR Log

foobar2000 1.3.14 / Dynamic Range Meter 1.1.1log date: 2017-05-07 22:48:22
--------------------------------------------------------------------------------Analyzed: Netherlands Philharmonic Orchestra conducted by Yakov Kreizberg / Wagner Overtures/Preludes--------------------------------------------------------------------------------
DR Peak RMS Duration Track--------------------------------------------------------------------------------DR13 -5.57 dB -24.90 dB 11:30 01-Der fliegende Hollдnder (The flying Dutchman) -OvertureDR14 -4.13 dB -24.43 dB 12:53 02-Rienzi -OvertureDR13 -4.56 dB -24.24 dB 11:12 03-Die Meistersinger von Nьrnberg -Prelude (Vorspiel)DR14 -4.15 dB -26.26 dB 15:12 04-Tannhдuser -OvertureDR12 -6.43 dB -24.23 dB 3:10 05-Lohengrin -Prelude 3rd Act (Vorspiel 3. Akt)DR17 -5.38 dB -30.92 dB 13:08 06-Tristan und Isolde -Prelude (Vorspiel)DR14 -6.48 dB -28.92 dB 7:08 07-Tristan und Isolde -Isoldens Liebestod--------------------------------------------------------------------------------
Number of tracks: 7Official DR value: DR14
Samplerate: 2822400 Hz / PCM Samplerate: 88200 HzChannels: 5Bits per sample: 1Bitrate: 14112 kbpsCodec: DST64================================================================================
--------------------------------------------------------------------------------Analyzed: Netherlands Philharmonic Orchestra conducted by Yakov Kreizberg / Wagner Overtures/Preludes--------------------------------------------------------------------------------
DR Peak RMS Duration Track--------------------------------------------------------------------------------DR13 -5.66 dB -24.28 dB 11:30 01-Der fliegende Hollдnder (The flying Dutchman) -OvertureDR15 -4.06 dB -23.78 dB 12:53 02-Rienzi -OvertureDR13 -6.34 dB -23.68 dB 11:12 03-Die Meistersinger von Nьrnberg -Prelude (Vorspiel)DR14 -5.36 dB -25.66 dB 15:12 04-Tannhдuser -OvertureDR12 -6.43 dB -23.66 dB 3:10 05-Lohengrin -Prelude 3rd Act (Vorspiel 3. Akt)DR16 -4.92 dB -30.14 dB 13:08 06-Tristan und Isolde -Prelude (Vorspiel)DR14 -7.50 dB -28.22 dB 7:08 07-Tristan und Isolde -Isoldens Liebestod--------------------------------------------------------------------------------
Number of tracks: 7Official DR value: DR14
Samplerate: 2822400 Hz / PCM Samplerate: 88200 HzChannels: 2Bits per sample: 1Bitrate: 5645 kbpsCodec: DST64================================================================================
Источник (релизер): SACD rip via PS3 to iso (PS³SACD)
http://www.sa-cd.net/showtitle/2368
http://www.pentatonemusic.com/richard-wagner-preludes-and-overtures



Ви не можете починати теми
Ви не можете відповідати на повідомлення
Ви не можете редагувати свої повідомлення
Ви не можете видаляти свої повідомлення
Ви не можете голосувати в опитуваннях
Ви не можете прикріплювати файли до повідомлень
Ви можете скачувати файли