[SACD-R][OF] Rachmaninov - Vespers, Op. 37 (St Petersburg Chamber Choir, Nikolai Korniev) - Рахманинов - Всенощная Op. 37 (Санкт-Петербургский Камерный Хор, Николай Корнев) - 2003 (Classical)


Статистика роздачі [Оновити пиров]
Розмір:  2,36 GB   |    Зареєстрований:  1 рік   |    Скачано:  0 раз

Повного джерела не було: Ніколи

by Козак ®
09-Бер-2018 20:16


[SACD-R][OF] Rachmaninov - Vespers, Op. 37 (St Petersburg Chamber Choir, Nikolai Korniev) - Рахманинов - Всенощная Op. 37 (Санкт-Петербургский Камерный Хор, Николай Корнев) - 2003 (Classical)

Rachmaninov - Vespers, Op. 37 (St Petersburg Chamber Choir, Nikolai Korniev) / Рахманинов - Всенощная Op. 37 (Санкт-Петербургский Камерный Хор, Николай Корнев)
Формат записи/Источник записи: [SACD-R][OF]
Наличие водяных знаков: Нет
Год издания/переиздания диска: 2003
Жанр: Classical
Издатель (лейбл): PentaTone Classics - PTC 5186 027
Продолжительность: 49:25 + 49:25
Наличие сканов в содержимом раздачи: Буклет PDF
Контейнер: ISO (*.iso)
Тип рипа: image
Разрядность: 64(2,8 MHz/1 Bit)
Формат: DST64
Количество каналов: 2.0; 5.0

Треклист:

Sergei Rachmaninov  (1873 - 1943)
Vespers, Op.37 (49:25)
1 Priidite, Poklanimsya (Come, Let us worship) 2:162 Blagoslovi, Dushe Moya (Bless the Lord, O my soul) 5:593 Blazen Muzh (Blessed be the Man) 3:404 Svete Tikhyi (O joyful light) 2:515 Nyne Otpushchayeshi (Now let thy Servant depart) 3:236 Bogoroditse Devo (Rejoice, o Virgin) 2:287 Slava V Vyshnikh Bogu (Glory to God in the highest) 2:308 Khavalite Imya Gospodne (Praise the name of the Lord) 1:459 Blagosloven Esi, Gospodi (Blessed art Thou, o Lord) 5:1210 Voskreseniye Khristovo Videvshe (Christ's resurrection: Having seen the resurrection of the Lord) 2:4111 Velichit Dusha Moya Gospoda (My soul magnifies the Lord) 6:1912 Slava V Vyshnikh Bogu (Greater doxology) 6:4713 Voskres Iz Groba (Christ is risen from the Grave) 3:0314 Vzbranno Voevode (Thanks giving to the Mother of God) 1:28

DR Log

foobar2000 1.3.14 / Dynamic Range Meter 1.1.1log date: 2017-05-08 02:21:02
--------------------------------------------------------------------------------Analyzed: St Petersburg Chamber Choir conducted by: Nikolai Korniev / Sergei Rachmaninov (1873-1945) - Vespers, Op.37--------------------------------------------------------------------------------
DR Peak RMS Duration Track--------------------------------------------------------------------------------DR13 -9.12 dB -30.42 dB 2:16 01-Come, Let us worshipDR14 -16.30 dB -41.55 dB 4:59 02-Bless the Lord, O my soulDR15 -10.90 dB -36.72 dB 3:40 03-Blessed be the ManDR13 -17.25 dB -39.21 dB 2:51 04-O joyful lightDR15 -9.14 dB -35.23 dB 3:23 05-Now let thy Servant departDR15 -11.02 dB -35.07 dB 2:28 06-Rejoice, o VirginDR13 -16.09 dB -39.55 dB 2:30 07-Glory to God in the highestDR12 -9.87 dB -31.17 dB 1:45 08-Praise the name of the LordDR14 -9.36 dB -34.48 dB 5:12 09-Blessed art Thou, o LordDR14 -9.28 dB -32.32 dB 2:41 10-Christ's resurrection: Having seen the resurrection of the LordDR17 -9.08 dB -35.84 dB 6:19 11-My soul magnifies the LordDR16 -7.43 dB -33.47 dB 6:47 12-Greater doxologyDR12 -13.57 dB -35.60 dB 3:03 13-Christ is risen from the GraveDR12 -9.99 dB -29.35 dB 1:31 14-Thanks giving to the Mother of God--------------------------------------------------------------------------------
Number of tracks: 14Official DR value: DR14
Samplerate: 2822400 Hz / PCM Samplerate: 88200 HzChannels: 5Bits per sample: 1Bitrate: 14112 kbpsCodec: DST64================================================================================
--------------------------------------------------------------------------------Analyzed: St Petersburg Chamber Choir conducted by: Nikolai Korniev / Sergei Rachmaninov (1873-1945) - Vespers, Op.37--------------------------------------------------------------------------------
DR Peak RMS Duration Track--------------------------------------------------------------------------------DR13 -6.30 dB -25.73 dB 2:16 01-Come, Let us worshipDR15 -16.34 dB -37.11 dB 4:59 02-Bless the Lord, O my soulDR15 -7.49 dB -32.14 dB 3:40 03-Blessed be the ManDR13 -13.84 dB -34.55 dB 2:51 04-O joyful lightDR16 -5.35 dB -30.74 dB 3:23 05-Now let thy Servant departDR15 -6.88 dB -30.41 dB 2:28 06-Rejoice, o VirginDR13 -13.91 dB -35.15 dB 2:30 07-Glory to God in the highestDR12 -8.27 dB -26.56 dB 1:45 08-Praise the name of the LordDR14 -7.48 dB -29.89 dB 5:12 09-Blessed art Thou, o LordDR14 -5.91 dB -27.62 dB 2:41 10-Christ's resurrection: Having seen the resurrection of the LordDR17 -7.18 dB -31.39 dB 6:19 11-My soul magnifies the LordDR16 -6.28 dB -28.91 dB 6:47 12-Greater doxologyDR13 -12.26 dB -31.21 dB 3:03 13-Christ is risen from the GraveDR12 -7.47 dB -24.76 dB 1:31 14-Thanks giving to the Mother of God--------------------------------------------------------------------------------
Number of tracks: 14Official DR value: DR14
Samplerate: 2822400 Hz / PCM Samplerate: 88200 HzChannels: 2Bits per sample: 1Bitrate: 5645 kbpsCodec: DST64================================================================================
Источник (релизер): SACD rip via PS3 to iso (PS³SACD)
http://www.sa-cd.net/showtitle/1141
https://www.discogs.com/Rachmaninov-St-Petersburg-Chamber-Choir-Nikolai-Korniev-V.../release/6921943



Ви не можете починати теми
Ви не можете відповідати на повідомлення
Ви не можете редагувати свої повідомлення
Ви не можете видаляти свої повідомлення
Ви не можете голосувати в опитуваннях
Ви не можете прикріплювати файли до повідомлень
Ви можете скачувати файли