[SACD-R][OF] Beethoven - Piano Concertos Nos 3, 4 & 5 - Sir Charles Mackerras - Scottish Chamber Orchestra, Artur Pizarro - piano (2 discs) - 2009 (Classical, Piano)


Статистика роздачі [Оновити пиров]
Розмір:  5,31 GB   |    Зареєстрований:  1 рік   |    Скачано:  0 раз

Повного джерела не було: Ніколи

by Козак ®
09-Бер-2018 20:16


[SACD-R][OF] Beethoven - Piano Concertos Nos 3, 4 & 5 - Sir Charles Mackerras - Scottish Chamber Orchestra, Artur Pizarro - piano (2 discs) - 2009 (Classical, Piano)

Beethoven - Piano Concertos Nos 3, 4 & 5 / Sir Charles Mackerras - Scottish Chamber Orchestra, Artur Pizarro - piano (2 discs)
Формат записи/Источник записи: [SACD-R][OF]
Наличие водяных знаков: Нет
Год издания/переиздания диска: 2009
Жанр: Classical, Piano
Издатель (лейбл): Linn Records - CKD336
Продолжительность: 01:07:32 + 35:46
Наличие сканов в содержимом раздачи: Буклет PDF
Контейнер: ISO (*.iso)
Тип рипа: image
Разрядность: 64(2,8 MHz/1 Bit)
Формат: DST64
Количество каналов: 2.0; 5.1

Треклист:

Disc 1:
Ludwig van Beethoven (1770-1827)
Piano Concerto No. 3, Op. 37:
01. I. Allegro con brio [17:05] 02. II. Largo [09:00] 03. III. Rondo allegro [09:05]
Piano Concerto No. 4, Op. 58:
04. I. Allegro moderato [17:56] 05. II. Andante con moto [04:25] 06. III. Rondo vivace [09:47]
Disc 2:
Piano Concerto No. 5, Op.73 "Emperor":
01. I. Allegro [19:51] 02. II. Adagio un poco mosso [06:04] 03. III. Rondo: Allegro, ma non troppo [09:51]

DR Log


Disc 1:

foobar2000 1.3.14 / Dynamic Range Meter 1.1.1
log date: 2017-05-10 19:26:51
--------------------------------------------------------------------------------
Analyzed: SCO/Mackerras/Pizarro / Beethoven Piano Concertos No.3 & No.4
--------------------------------------------------------------------------------
DR Peak RMS Duration Track
--------------------------------------------------------------------------------
DR16 -6.51 dB -32.58 dB 17:05 01-No.3: Allegro con brio
DR14 -13.80 dB -38.11 dB 9:00 02-Largo
DR14 -6.22 dB -31.91 dB 9:17 03-Rondo Allegro
DR15 -6.93 dB -34.06 dB 17:56 04-No.4: Allegro moderato
DR13 -13.07 dB -37.62 dB 4:25 05-Andante con moto
DR15 -6.28 dB -32.43 dB 9:48 06-Rondo Vivace
--------------------------------------------------------------------------------
Number of tracks: 6
Official DR value: DR15
Samplerate: 2822400 Hz / PCM Samplerate: 88200 Hz
Channels: 6
Bits per sample: 1
Bitrate: 16934 kbps
Codec: DST64
================================================================================
--------------------------------------------------------------------------------
Analyzed: SCO/Mackerras/Pizarro / Beethoven Piano Concertos No.3 & No.4
--------------------------------------------------------------------------------
DR Peak RMS Duration Track
--------------------------------------------------------------------------------
DR16 -6.10 dB -27.20 dB 17:05 01-No.3: Allegro con brio
DR15 -11.16 dB -32.76 dB 9:00 02-Largo
DR14 -6.11 dB -26.46 dB 9:17 03-Rondo Allegro
DR16 -6.11 dB -28.73 dB 17:56 04-No.4: Allegro moderato
DR13 -11.13 dB -32.12 dB 4:25 05-Andante con moto
DR16 -6.10 dB -27.04 dB 9:48 06-Rondo Vivace
--------------------------------------------------------------------------------
Number of tracks: 6
Official DR value: DR15
Samplerate: 2822400 Hz / PCM Samplerate: 88200 Hz
Channels: 2
Bits per sample: 1
Bitrate: 5645 kbps
Codec: DST64
================================================================================

Disc 2:

foobar2000 1.3.14 / Dynamic Range Meter 1.1.1
log date: 2017-05-10 19:53:48
--------------------------------------------------------------------------------
Analyzed: SCO/Mackerras/Pizarro / Beethoven Piano Concerto No.5
--------------------------------------------------------------------------------
DR Peak RMS Duration Track
--------------------------------------------------------------------------------
DR14 -7.81 dB -31.32 dB 19:51 01-No.5: Allegro
DR15 -15.63 dB -40.88 dB 6:04 02-Adagio un poco mosso
DR14 -7.14 dB -31.11 dB 9:51 03-Allegro, ma non troppo
--------------------------------------------------------------------------------
Number of tracks: 3
Official DR value: DR14
Samplerate: 2822400 Hz / PCM Samplerate: 88200 Hz
Channels: 6
Bits per sample: 1
Bitrate: 16934 kbps
Codec: DST64
================================================================================
--------------------------------------------------------------------------------
Analyzed: SCO/Mackerras/Pizarro / Beethoven Piano Concerto No.5
--------------------------------------------------------------------------------
DR Peak RMS Duration Track
--------------------------------------------------------------------------------
DR14 -6.11 dB -26.02 dB 19:51 01-No.5: Allegro
DR16 -14.38 dB -35.49 dB 6:04 02-Adagio un poco mosso
DR14 -6.48 dB -25.83 dB 9:51 03-Allegro, ma non troppo
--------------------------------------------------------------------------------
Number of tracks: 3
Official DR value: DR15
Samplerate: 2822400 Hz / PCM Samplerate: 88200 Hz
Channels: 2
Bits per sample: 1
Bitrate: 5645 kbps
Codec: DST64
================================================================================
Источник (релизер): SACD rip via PS3 to iso http://www.sa-cd.net/showtitle/5876
http://www.hmv.co.jp/en/artist_Beethoven-1770-1827_000000000034571/item_Piano-Con...ra-2SACD_3569502



Ви не можете починати теми
Ви не можете відповідати на повідомлення
Ви не можете редагувати свої повідомлення
Ви не можете видаляти свої повідомлення
Ви не можете голосувати в опитуваннях
Ви не можете прикріплювати файли до повідомлень
Ви можете скачувати файли