[SACD-R][OF] Beethoven - Piano Sonatas (No.8 - Pathetique; No.14 - Moonlight; No.17 - Tempest; No.23 - Appassionata) - Artur Pizarro - piano - 2003 (Classical, Piano)


Статистика роздачі [Оновити пиров]
Розмір:  4,14 GB   |    Зареєстрований:  1 рік   |    Скачано:  0 раз

Повного джерела не було: Ніколи

by Козак ®
09-Бер-2018 20:16


[SACD-R][OF] Beethoven - Piano Sonatas (No.8 - Pathetique; No.14 - Moonlight; No.17 - Tempest; No.23 - Appassionata) - Artur Pizarro - piano - 2003 (Classical, Piano)

Beethoven - Piano Sonatas (No.8 - Pathétique; No.14 - Moonlight; No.17 - Tempest; No.23 - Appassionata) / Artur Pizarro - piano
Формат записи/Источник записи: [SACD-R][OF]
Наличие водяных знаков: Нет
Год издания/переиздания диска: 2003
Жанр: Classical, Piano
Издатель (лейбл): Linn Records - CKD 244
Продолжительность: 01:18:20
Наличие сканов в содержимом раздачи: Буклет PDF
Контейнер: ISO (*.iso)
Тип рипа: image
Разрядность: 64(2,8 MHz/1 Bit)
Формат: DST64
Количество каналов: 2.0; 5.1

Треклист:

Ludwig van Beethoven (1770-1827)
Sonata No.8 - Pathétique in C minor : Op.13 (1798)
1 Grave; Allegro di molto e con brio (9.05)2 Adagio cantabile : 4.553 Rondo (Allegro) : 3.48
Sonata No.14 - Moonlight in C# minor : Op.27/2 (1801)
4 Adagio sostenuto : 6.415 Allegretto : 2.106 Presto agitato : 6.39
Sonata No.17 - Tempest in D minor : Op.31/2 (1802)
7 Largo : 8.328 Adagio : 8.449 Allegretto : 5.01
Sonata No.23 - Appassionata in F minor : Op.57 (1804)
10 Allegro assai : 9.5611 Andante con moto : 5.4212 Allegro ma non troppo – Presto : 7.07

DR Log

foobar2000 1.3.14 / Dynamic Range Meter 1.1.1log date: 2017-05-11 03:03:40
--------------------------------------------------------------------------------Analyzed: Artur Pizarro / Beethoven Piano Sonatas--------------------------------------------------------------------------------
DR Peak RMS Duration Track--------------------------------------------------------------------------------DR15 -7.13 dB -31.52 dB 9:05 01-Sonata No 8 "Pathetique" in C minor - Grave; Allegro di molto e con brioDR15 -16.00 dB -42.28 dB 4:55 02-Sonata No 8, "Pathetique" in C minor - Adagio CantabileDR13 -11.15 dB -32.15 dB 3:49 03-Sonata No 8, "Pathetique" in C minor - RondoDR13 -21.68 dB -44.59 dB 6:41 04-Sonata No 14, "Moonlight" in C# minor - Adagio sostenutoDR12 -14.27 dB -34.22 dB 2:10 05-Sonata No 14, "Moonlight" in C# minor - AllegrettoDR14 -6.77 dB -28.58 dB 6:43 06-Sonata No 14, "Moonlight" in C# minor - Presto AgitatoDR13 -9.98 dB -32.44 dB 8:32 07-Sonata No. 17, "Tempest" in D minor - LargoDR15 -18.64 dB -43.91 dB 8:44 08-Sonata No. 17, "Tempest" in D minor - AdagioDR12 -10.36 dB -28.93 dB 5:02 09-Sonata No. 17, "Tempest" in D minor - AllegrettoDR14 -6.41 dB -30.42 dB 9:56 10-Sonata No. 23 "Appassionata" in F minor - Allegro assaiDR14 -15.15 dB -38.54 dB 5:42 11-Sonata No. 23 "Appassionata" in F minor - Andante con motoDR13 -7.91 dB -28.87 dB 7:08 12-Sonata No. 23 "Appassionata" in F minor - Allegro ma non troppo - Presto--------------------------------------------------------------------------------
Number of tracks: 12Official DR value: DR14
Samplerate: 2822400 Hz / PCM Samplerate: 88200 HzChannels: 6Bits per sample: 1Bitrate: 16934 kbpsCodec: DST64================================================================================
--------------------------------------------------------------------------------Analyzed: Artur Pizarro / Beethoven Piano Sonatas--------------------------------------------------------------------------------
DR Peak RMS Duration Track--------------------------------------------------------------------------------DR15 -9.14 dB -29.63 dB 9:05 01-Sonata No 8 "Pathetique" in C minor - Grave; Allegro di molto e con brioDR16 -18.34 dB -40.22 dB 4:55 02-Sonata No 8, "Pathetique" in C minor - Adagio CantabileDR14 -11.30 dB -30.31 dB 3:49 03-Sonata No 8, "Pathetique" in C minor - RondoDR15 -22.46 dB -42.76 dB 6:41 04-Sonata No 14, "Moonlight" in C# minor - Adagio sostenutoDR13 -14.41 dB -32.44 dB 2:10 05-Sonata No 14, "Moonlight" in C# minor - AllegrettoDR14 -8.27 dB -26.61 dB 6:43 06-Sonata No 14, "Moonlight" in C# minor - Presto AgitatoDR13 -11.05 dB -30.30 dB 8:33 07-Sonata No. 17, "Tempest" in D minor - LargoDR16 -19.99 dB -42.23 dB 8:44 08-Sonata No. 17, "Tempest" in D minor - AdagioDR12 -11.46 dB -26.80 dB 5:03 09-Sonata No. 17, "Tempest" in D minor - AllegrettoDR15 -6.05 dB -28.20 dB 9:56 10-Sonata No. 23 "Appassionata" in F minor - Allegro assaiDR14 -16.14 dB -36.66 dB 5:42 11-Sonata No. 23 "Appassionata" in F minor - Andante con motoDR13 -8.27 dB -26.84 dB 7:08 12-Sonata No. 23 "Appassionata" in F minor - Allegro ma non troppo - Presto--------------------------------------------------------------------------------
Number of tracks: 12Official DR value: DR14
Samplerate: 2822400 Hz / PCM Samplerate: 88200 HzChannels: 2Bits per sample: 1Bitrate: 5645 kbpsCodec: DST64================================================================================
Источник (релизер): SACD rip via PS3 to iso http://www.sa-cd.net/showtitle/2187
https://www.discogs.com/Ludwig-van-Beethoven-Artur-Pizarro-Beethoven-Piano-Sonatas/release/5884268



Ви не можете починати теми
Ви не можете відповідати на повідомлення
Ви не можете редагувати свої повідомлення
Ви не можете видаляти свої повідомлення
Ви не можете голосувати в опитуваннях
Ви не можете прикріплювати файли до повідомлень
Ви можете скачувати файли