[SACD-R][OF] Frederic Chopin - Reminiscences (Valses, Nocturnes, Mazurkas) - Artur Pizarro - piano - 2005 (Classical, Piano)


Статистика роздачі [Оновити пиров]
Розмір:  3,88 GB   |    Зареєстрований:  1 рік   |    Скачано:  0 раз

Повного джерела не було: Ніколи

by Козак ®
09-Бер-2018 20:16


[SACD-R][OF] Frederic Chopin - Reminiscences (Valses, Nocturnes, Mazurkas) - Artur Pizarro - piano - 2005 (Classical, Piano)

Frederic Chopin - Reminiscences (Valses, Nocturnes, Mazurkas) / Artur Pizarro - piano
Формат записи/Источник записи: [SACD-R][OF]
Наличие водяных знаков: Нет
Год издания/переиздания диска: 2005
Жанр: Classical, Piano
Издатель (лейбл): Linn Records - CKD 248
Продолжительность: 01:18:15
Наличие сканов в содержимом раздачи: Буклет PDF
Контейнер: ISO (*.iso)
Тип рипа: image
Разрядность: 64(2,8 MHz/1 Bit)
Формат: DST64
Количество каналов: 2.0; 5.1

Треклист:

Frédéric François Chopin (1810 - 1849)
1. Grande Valse Brillante in E-flat major, Op. 182. Valse in A-flat major, Op. 69 No. 1 (D'après l'autographe varsovien)3. Grande Valse Brillante in A-flat major, Op. 34 No. 14. Valse in E-flat major, Op. Posth.5. Fantaisie-Impromptu in C-sharp minor, Op. 66 (version de l'autographe)6. Nocturne in B major, Op. 62 No. 17. Nocturne in C-sharp minor, Op. Posth.8. Nocturne in D-flat major, Op. 27 No. 29. Nocturne in E-flat major, Op. 9 No. 210. Polonaise in A-flat major, Op. 53 "Heroique"11. Mazurka in A-flat major, Op. 24 No. 312. Mazurka in F major, Op. 68 No. 313. Mazurka in B-flat minor, Op. 24 No. 414. Mazurka in B-flat major, Op. 17 No.115. Scherzo No. 2 in B-flat minor, Op. 31

DR Log

foobar2000 1.3.14 / Dynamic Range Meter 1.1.1log date: 2017-05-12 23:42:20
--------------------------------------------------------------------------------Analyzed: Artur Pizarro / Frederic Chopin--------------------------------------------------------------------------------
DR Peak RMS Duration Track--------------------------------------------------------------------------------DR12 -7.76 dB -31.65 dB 5:55 01-Grande Valse Brillante in Eb, Op.18DR12 -13.79 dB -39.21 dB 3:21 02-Valse in A flat major op. 69 no. 1DR11 -8.63 dB -30.55 dB 5:53 03-Grand Valse Brilliante op. 34 no. 1DR11 -10.64 dB -33.46 dB 2:24 04-Valse in E flat major, op. post.DR10 -10.97 dB -33.28 dB 5:00 05-Fantaisie - Impromptu in c-sharp minor, Op.66DR12 -16.64 dB -40.79 dB 8:35 06-Nocturne Op.62 No.1DR12 -17.11 dB -43.59 dB 5:32 07-Nocturne Op. PostDR12 -13.65 dB -39.44 dB 7:22 08-Nocturne Op.27 No.2DR12 -18.23 dB -41.84 dB 5:13 09-Nocturne Op.9 No.2DR11 -6.97 dB -27.28 dB 7:25 10-Polonaise in a-flat major, Op.53 "Heroique"DR12 -13.94 dB -38.13 dB 1:51 11-Mazurka Op.24 No.3DR11 -14.96 dB -38.12 dB 2:15 12-Mazurka Op.68 No.3DR12 -10.39 dB -34.27 dB 4:57 13-Mazurka Op.24 No.4DR10 -10.21 dB -30.76 dB 2:27 14-Mazurka Op.17 No.1DR12 -6.54 dB -29.55 dB 9:44 15-Scherzo no.2 in b-flat minor, Op.31--------------------------------------------------------------------------------
Number of tracks: 15Official DR value: DR11
Samplerate: 2822400 Hz / PCM Samplerate: 88200 HzChannels: 6Bits per sample: 1Bitrate: 16934 kbpsCodec: DST64================================================================================
--------------------------------------------------------------------------------Analyzed: Artur Pizarro / Frederic Chopin--------------------------------------------------------------------------------
DR Peak RMS Duration Track--------------------------------------------------------------------------------DR15 -7.61 dB -28.00 dB 5:55 01-Grande Valse Brillante in Eb, Op.18DR15 -12.98 dB -35.41 dB 3:21 02-Valse in A flat major op. 69 no. 1DR13 -8.35 dB -26.95 dB 5:53 03-Grand Valse Brilliante op. 34 no. 1DR15 -9.97 dB -29.93 dB 2:24 04-Valse in E flat major, op. post.DR12 -11.56 dB -29.63 dB 5:00 05-Fantaisie - Impromptu in c-sharp minor, Op.66DR14 -16.82 dB -37.17 dB 8:35 06-Nocturne Op.62 No.1DR16 -17.18 dB -39.87 dB 5:32 07-Nocturne Op. PostDR15 -12.36 dB -35.71 dB 7:22 08-Nocturne Op.27 No.2DR15 -16.78 dB -38.15 dB 5:13 09-Nocturne Op.9 No.2DR12 -6.73 dB -23.69 dB 7:25 10-Polonaise in a-flat major, Op.53 "Heroique"DR15 -14.83 dB -34.41 dB 1:51 11-Mazurka Op.24 No.3DR14 -14.94 dB -34.36 dB 2:15 12-Mazurka Op.68 No.3DR14 -9.99 dB -30.59 dB 4:57 13-Mazurka Op.24 No.4DR12 -10.67 dB -27.09 dB 2:27 14-Mazurka Op.17 No.1DR14 -6.27 dB -26.18 dB 9:44 15-Scherzo no.2 in b-flat minor, Op.31--------------------------------------------------------------------------------
Number of tracks: 15Official DR value: DR14
Samplerate: 2822400 Hz / PCM Samplerate: 88200 HzChannels: 2Bits per sample: 1Bitrate: 5645 kbpsCodec: DST64================================================================================
Источник (релизер): SACD rip via PS3 to iso http://www.sa-cd.net/showtitle/2831
https://www.hraudio.net/showmusic.php?title=2831



Ви не можете починати теми
Ви не можете відповідати на повідомлення
Ви не можете редагувати свої повідомлення
Ви не можете видаляти свої повідомлення
Ви не можете голосувати в опитуваннях
Ви не можете прикріплювати файли до повідомлень
Ви можете скачувати файли