[SACD-R][OF] Gregorio Paniagua - La Folia De La Spagna (Renditions of Spanish "Folias" with ancient and modern instruments) - Gregorio Paniagua - Atrium Musicae De Madrid - 2003 (Classical, Medieval, Experimental)


Статистика роздачі [Оновити пиров]
Розмір:  2,13 GB   |    Зареєстрований:  1 рік   |    Скачано:  0 раз

Повного джерела не було: Ніколи

by Козак ®
09-Бер-2018 20:16


[SACD-R][OF] Gregorio Paniagua - La Folia De La Spagna (Renditions of Spanish "Folias" with ancient and modern instruments) - Gregorio Paniagua - Atrium Musicae De Madrid - 2003 (Classical, Medieval, Experimental)

Gregorio Paniagua - La Folia De La Spagna (Renditions of Spanish "Folias" with ancient and modern instruments) / Gregorio Paniagua - Atrium Musicae De Madrid
Формат записи/Источник записи: [SACD-R][OF]
Наличие водяных знаков: Нет
Год издания/переиздания диска: 2003
Жанр: Classical, Medieval, Experimental
Издатель (лейбл): Harmonia Mundi - HMC 801050
Продолжительность: 44:17 + 44:17
Наличие сканов в содержимом раздачи: Только обложка альбома
Контейнер: ISO (*.iso)
Тип рипа: image
Разрядность: 64(2,8 MHz/1 Bit)
Формат: DST64
Количество каналов: 2.0; 5.0

Треклист:

1  Fons Vitae / Dementia Praecox Angelorum / Supra Solfamireut  6:012  Extravagans / Laurea Minima / In Vitro  2:073  Oratio Pro-Folia / Fama Volat / Citrus - Hesperides  2:274  Principalis. Fermescens / Indica Exacta / Adverso Flumine  8:105  Parsimonia Aristocraciae  3:096  Subtilis / De Profondis - Extra Muros  1:237  Vulgaris - Sine Populi Notione / Vagula Et Blandula  1:388  Nordica Et Desolata / Aurea Mediocritas  5:049  Nobilissima / Degradans Et Corruptae  2:2210  De Pastoribus/ Mathematica Dies Irae/ Crepuscularis/ Sine Nomine/ Tristis Est Anima Mea/ Equites Fortis Armaturae/ Audaces Fortuna Iuvat/ Sine Praeputium/ Ecclesiastica  5:1311  Theatralis Et Hipocritae / Ruralis / Alter Indica Perfecta  1:5612  De Tolerentia Aetherea / Fuga Ficta Et Carrus Triumphalis  4:32

DR Log

foobar2000 1.3.14 / Dynamic Range Meter 1.1.1log date: 2017-05-14 06:18:15
--------------------------------------------------------------------------------Analyzed: Atrium Musicae de Madrid, Dir. Gregorio Paniagua / La Folia de la Spagna--------------------------------------------------------------------------------
DR Peak RMS Duration Track--------------------------------------------------------------------------------DR16 -11.49 dB -37.67 dB 5:56 01-Fons vitae / Dementia praecox angelorum / Supra solfamirevtDR15 -10.38 dB -37.53 dB 2:09 02-Extravagans / Laurea minima / In vitroDR17 -8.68 dB -37.85 dB 2:27 03-Oratio pro-folia / Fama volat / Citrus - HesperidesDR21 -5.98 dB -37.39 dB 8:12 04-Principalis. Fermescens / Indica exacta / Adverso flumineDR15 -9.96 dB -36.49 dB 3:11 05-Parsimonia aristocraciaeDR13 -16.73 dB -36.95 dB 1:30 06-Subtilis / De profundis - Extra murosDR16 -9.32 dB -36.50 dB 1:39 07-Vulgaris - Sine populi notione / Vagula et blandulaDR19 -6.03 dB -34.70 dB 5:06 08-Nordica et desolata / Aurea mediocritasDR13 -15.03 dB -36.41 dB 2:22 09-Nobilissima / Degradans et corruptaeDR17 -7.74 dB -36.57 dB 5:14 10-De pastoribus / Mathematica dies irae / Crepuscularis / Sine nomine / Tristis est anima mea / Equites fortis armaturae / Audaces fortuna juvat / Sine praeputium / EcclesiasticaDR15 -6.01 dB -29.71 dB 1:58 11-Theatralis et hipocritae / Ruralis / Alter indica perfectaDR18 -5.95 dB -32.77 dB 4:34 12-De tolerentia aetherea / Fuga ficta et carrus triumphalis--------------------------------------------------------------------------------
Number of tracks: 12Official DR value: DR16
Samplerate: 2822400 Hz / PCM Samplerate: 88200 HzChannels: 5Bits per sample: 1Bitrate: 14112 kbpsCodec: DST64================================================================================
--------------------------------------------------------------------------------Analyzed: Atrium Musicae de Madrid, Dir. Gregorio Paniagua / La Folia de la Spagna--------------------------------------------------------------------------------
DR Peak RMS Duration Track--------------------------------------------------------------------------------DR19 -11.49 dB -36.79 dB 5:56 01-Fons vitae / Dementia praecox angelorum / Supra solfamirevtDR18 -10.38 dB -36.72 dB 2:09 02-Extravagans / Laurea minima / In vitroDR20 -8.68 dB -36.62 dB 2:27 03-Oratio pro-folia / Fama volat / Citrus - HesperidesDR23 -5.98 dB -36.32 dB 8:12 04-Principalis. Fermescens / Indica exacta / Adverso flumineDR16 -9.96 dB -35.45 dB 3:11 05-Parsimonia aristocraciaeDR12 -17.78 dB -35.89 dB 1:30 06-Subtilis / De profundis - Extra murosDR20 -9.32 dB -35.43 dB 1:39 07-Vulgaris - Sine populi notione / Vagula et blandulaDR20 -6.03 dB -33.52 dB 5:06 08-Nordica et desolata / Aurea mediocritasDR15 -15.03 dB -35.62 dB 2:22 09-Nobilissima / Degradans et corruptaeDR20 -7.74 dB -35.56 dB 5:14 10-De pastoribus / Mathematica dies irae / Crepuscularis / Sine nomine / Tristis est anima mea / Equites fortis armaturae / Audaces fortuna juvat / Sine praeputium / EcclesiasticaDR17 -6.01 dB -29.07 dB 1:58 11-Theatralis et hipocritae / Ruralis / Alter indica perfectaDR21 -5.95 dB -31.74 dB 4:34 12-De tolerentia aetherea / Fuga ficta et carrus triumphalis--------------------------------------------------------------------------------
Number of tracks: 12Official DR value: DR18
Samplerate: 2822400 Hz / PCM Samplerate: 88200 HzChannels: 2Bits per sample: 1Bitrate: 5645 kbpsCodec: DST64================================================================================
Доп. информация: Renditions of Spanish "Folias" (Crazy Dances, a musical form first mentioned 1505) with ancient and modern instruments.
Источник (релизер): SACD rip via PS3 to iso http://www.sa-cd.net/showtitle/1455
https://www.discogs.com/Gregorio-Paniagua-La-Folia-De-La-Spagna/release/9475415



Ви не можете починати теми
Ви не можете відповідати на повідомлення
Ви не можете редагувати свої повідомлення
Ви не можете видаляти свої повідомлення
Ви не можете голосувати в опитуваннях
Ви не можете прикріплювати файли до повідомлень
Ви можете скачувати файли