[SACD-R][OF] Netherlands Philharmonic Orchestra, Marc Albrecht - Brahms - Piano Quartet Op. 25; Schonberg - Begleitmusik zu einer Lichtspielszene / Accompaniment to a cinematographic scene - 2015 (Classical/Chamber/Piano)


Статистика роздачі [Оновити пиров]
Розмір:  2,63 GB   |    Зареєстрований:  1 рік   |    Скачано:  0 раз

Повного джерела не було: Ніколи

by Козак ®
09-Бер-2018 20:16


[SACD-R][OF] Netherlands Philharmonic Orchestra, Marc Albrecht - Brahms - Piano Quartet Op. 25; Schonberg - Begleitmusik zu einer Lichtspielszene / Accompaniment to a cinematographic scene - 2015 (Classical/Chamber/Piano)

Netherlands Philharmonic Orchestra, Marc Albrecht
Brahms - Piano Quartet Op. 25, Orchestrated by Arnold Schönberg
Schönberg - Begleitmusik zu einer Lichtspielszene / Accompaniment to a cinematographic scene
- Формат записи/Источник записи: [SACD-R][OF]
Наличие водяных знаков: Нет
Год издания/переиздания диска: 2015
Жанр: Classical/Orchestral
Издатель (лейбл): PentaTone
Продолжительность: 00:50:34
Наличие сканов в содержимом раздачи: Буклет PDF-Треклист:
Johannes Brahms
Piano Quartet Op. 25, Orchestrated by Arnold Schönberg :
01] Allegro 14:12
02] Intermezzo - Allegro ma non troppo 8:26
03] Andante con moto 9:44
04] Rondo alla zingarese - Presto 9:10
05] Arnold Schönberg:
Begleitmusik zu einer Lichtspielszene
(Accompaniment to a cinematographic scene)
8:58-Netherlands Philharmonic Orchestra
Marc Albrecht, conductor-Контейнер: ISO (*.iso)
Тип рипа: image
Разрядность: 64(2,8 MHz/1 Bit)
Формат: DST64
Количество каналов: 5.0; 2.0-Доп. информация: Released on 03-08-2015 , PTC 5186398
Recording type -- DSD
Источник (релизер): WEB
https://www.pentatonemusic.com/brahms-piano-quartet-op-25-orchestrated-by-schonberg
http://sa-cd.net/showtitle/10862

Лог DR

foobar2000 1.3.13 / Замер динамического диапазона (DR) 1.1.1Дата отчёта:  2017-05-07 03:37:17
--------------------------------------------------------------------------------Анализ: Netherlands Philharmonic Orchestra, Marc Albrecht, conductor / Brahms - Piano Quartet Op. 25, Orchestrated by Schцnberg & Schцnberg - Accompaniment to a cinematographic scene--------------------------------------------------------------------------------
DR Пики RMS Продолжительность трека--------------------------------------------------------------------------------DR16 -3.46 дБ -26.75 дБ 14:10 01-Johannes Brahms Piano Quartet Op. 25, Orchestrated by Arnold Schцnberg - AllegroDR18 -5.36 дБ -31.54 дБ 8:28 02-Johannes Brahms Piano Quartet Op. 25, Orchestrated by Arnold Schцnberg - Intermezzo - Allegro ma non troppoDR16 -0.98 дБ -25.07 дБ 9:45 03-Johannes Brahms Piano Quartet Op. 25, Orchestrated by Arnold Schцnberg - Andante con motoDR17 0.00 дБ -24.61 дБ 9:10 04-Johannes Brahms Piano Quartet Op. 25, Orchestrated by Arnold Schцnberg - Rondo alla zingarese - PrestoDR17 -2.10 дБ -27.10 дБ 9:00 05-Arnold Schцnberg Begleitmusik zu einer Lichtspielszene (Accompaniment to a cinematographic scene)--------------------------------------------------------------------------------
Количество треков: 5Реальные значения DR: DR17
Частота: 2822400 Гц / Частота PCM: 88200 ГцКаналов: 5Разрядность: 24Битрейт: 14112 кбит/сКодек: DST64================================================================================
--------------------------------------------------------------------------------Анализ: Netherlands Philharmonic Orchestra, Marc Albrecht, conductor / Brahms - Piano Quartet Op. 25, Orchestrated by Schцnberg & Schцnberg - Accompaniment to a cinematographic scene--------------------------------------------------------------------------------
DR Пики RMS Продолжительность трека--------------------------------------------------------------------------------DR15 -3.66 дБ -25.18 дБ 14:10 01-Johannes Brahms Piano Quartet Op. 25, Orchestrated by Arnold Schцnberg - AllegroDR17 -6.42 дБ -30.20 дБ 8:28 02-Johannes Brahms Piano Quartet Op. 25, Orchestrated by Arnold Schцnberg - Intermezzo - Allegro ma non troppoDR16 -2.14 дБ -23.52 дБ 9:45 03-Johannes Brahms Piano Quartet Op. 25, Orchestrated by Arnold Schцnberg - Andante con motoDR17 0.00 дБ -22.24 дБ 9:10 04-Johannes Brahms Piano Quartet Op. 25, Orchestrated by Arnold Schцnberg - Rondo alla zingarese - PrestoDR16 -0.77 дБ -24.73 дБ 9:00 05-Arnold Schцnberg Begleitmusik zu einer Lichtspielszene (Accompaniment to a cinematographic scene)--------------------------------------------------------------------------------
Количество треков: 5Реальные значения DR: DR16
Частота: 2822400 Гц / Частота PCM: 88200 ГцКаналов: 2Разрядность: 24Битрейт: 5645 кбит/сКодек: DST64================================================================================



Ви не можете починати теми
Ви не можете відповідати на повідомлення
Ви не можете редагувати свої повідомлення
Ви не можете видаляти свої повідомлення
Ви не можете голосувати в опитуваннях
Ви не можете прикріплювати файли до повідомлень
Ви можете скачувати файли