[BR][OF] Robert Schumann - Symphonien 1-4 (Berliner Philharmoniker, Simon Rattle) - 2014 (Classical)


Статистика роздачі [Оновити пиров]
Розмір:  42,95 GB   |    Зареєстрований:  1 рік   |    Скачано:  0 раз

Повного джерела не було: Ніколи

by Козак ®
09-Бер-2018 20:16


[BR][OF] Robert Schumann - Symphonien 1-4 (Berliner Philharmoniker, Simon Rattle) - 2014 (Classical)

Robert Schumann - Symphonien 1-4 (Berliner Philharmoniker, Simon Rattle)
Формат записи/Источник записи: [BR][OF]
Наличие водяных знаков: Нет
Год издания/переиздания диска: 2014
Жанр: Classical
Издатель (лейбл): Berliner Philharmoniker Recordings
Продолжительность: 02:05:32 + бонус видео
Наличие сканов в содержимом раздачи: Нет
https://www.berliner-philharmoniker-recordings.com/simon-rattle-schumanns-symphonien.html
Треклист:
Robert Schumann (1810-1856)
Symphony No. 1 in B flat major, op. 38 “Spring”
I. Andante un poco maestoso – Allegro molto vivace
II. Larghetto –
III. Scherzo
IV. Allegro animato e grazioso
Symphony No. 4 in D minor, first version from 1841
I. Andante con moto – Allegro di molto
II. Romanza: Andante
III. Scherzo
IV. Finale: Allegro vivace
Symphony No. 2 in C major op. 61
I. Sostenuto assai – Allegro, ma non troppo
II. Scherzo
III. Adagio espressivo
IV. Allegro molto vivace
Symphony No. 3 in E flat major op. 97 “Rhenish”
I. Lebhaft
II. Scherzo
III. Nicht schnell
IV. Feierlich
V. Lebhaft
Бонус видео
• Sir Simon Rattle on Robert Schumann and his symphonies
• Behind the scenes: the recordings in the Berlin Philharmonie
• About the Digital Concert Hall of the Berliner Philharmoniker
Контейнер: BDMV
Тип рипа: folder
Разрядность: 24/96
Формат: DTS-HD MA
Количество каналов: 5.0
Другие дорожки звука: LPCM 24 /96 2.0
BD видео (бонусное видео):
Продолжительность: 0:43:49 + 0:35:34 + 0:34:33 + 0:27:05 + 0:25:48
Видео: MPEG-4 AVC ~20000 kbps / 1080i / 29.970 fps / 16:9 / High Profile 4.1
Аудио 1: German LPCM 2.0 / 48 kHz / 1536 kbps / 16-bit
Аудио 2: German DTS-HD MA 5.0 / 48 kHz / ~2250 kbps / 16-bit (DTS Core: 5.0 / 48 kHz / 1509 kbps / 16-bit)
BDInfo
Disc Title:     SCHUMANN SYMPHONIESDisc Size:      46 112 130 173 bytesProtection:     AACSBD-Java:        YesBDInfo:         0.5.8
Notes:
BDINFO HOME: Cinema Squid http://www.cinemasquid.com/blu-ray/tools/bdinfo
INCLUDES FORUMS REPORT FOR: AVS Forum Blu-ray Audio and Video Specifications Thread http://www.avsforum.com/avs-vb/showthread.php?t=1155731
********************PLAYLIST: 00000.MPLS********************
Total   Video
Title                                                           Codec   Length  Movie Size      Disc Size       Bitrate Bitrate Main Audio Track                          Secondary Audio Track
-----                                                           ------  ------- --------------  --------------  ------- ------- ------------------                        ---------------------
00000.MPLS                                                      AVC     2:05:32 11 724 779 520  46 112 130 173  12,45   0,95    LPCM 2.0 4608Kbps (96kHz/24-bit)          DTS-HD Master 5.0 5989Kbps (96kHz/24-bit)
DISC INFO:
Disc Title:     SCHUMANN SYMPHONIES
Disc Size:      46 112 130 173 bytes
Protection:     AACS
BD-Java:        Yes
BDInfo:         0.5.8
PLAYLIST REPORT:
Name:                   00000.MPLS
Length:                 2:05:32.091 (h:m:s.ms)
Size:                   11 724 779 520 bytes
Total Bitrate:          12,45 Mbps
VIDEO:
Codec                   Bitrate             Description
-----                   -------             -----------
MPEG-4 AVC Video        950 kbps            1080i / 29,970 fps / 16:9 / High Profile 4.1
AUDIO:
Codec                           Language        Bitrate         Description
-----                           --------        -------         -----------
LPCM Audio                      German          4608 kbps       2.0 / 96 kHz / 4608 kbps / 24-bit
DTS-HD Master Audio             German          5989 kbps       5.0 / 96 kHz / 5989 kbps / 24-bit (DTS Core: 5.0 / 48 kHz / 1509 kbps / 24-bit)
FILES:
Name            Time In         Length          Size            Total Bitrate
----            -------         ------          ----            -------------
00017.M2TS      0:00:00.000     2:05:32.091     11 724 779 520  12 453
CHAPTERS:
Number          Time In         Length          Avg Video Rate  Max 1-Sec Rate  Max 1-Sec Time  Max 5-Sec Rate  Max 5-Sec Time  Max 10Sec Rate  Max 10Sec Time  Avg Frame Size  Max Frame Size  Max Frame Time
------          -------         ------          --------------  --------------  --------------  --------------  --------------  --------------  --------------  --------------  --------------  --------------
1               0:00:00.000     0:11:21.280     950 kbps        1 514 kbps      00:11:19.478    1 063 kbps      00:11:15.474    1 006 kbps      00:11:10.469    3 962 bytes     89 917 bytes    00:00:00.967
2               0:11:21.280     0:05:45.411     950 kbps        1 333 kbps      00:17:05.224    1 027 kbps      00:17:01.220    988 kbps        00:16:56.215    3 962 bytes     89 918 bytes    00:11:22.248
3               0:17:06.692     0:05:35.568     950 kbps        1 373 kbps      00:22:40.625    1 035 kbps      00:22:36.621    992 kbps        00:22:31.616    3 962 bytes     89 918 bytes    00:17:07.659
4               0:22:42.260     0:08:40.219     950 kbps        1 544 kbps      00:31:20.678    1 069 kbps      00:31:16.674    1 009 kbps      00:31:11.669    3 962 bytes     89 917 bytes    00:22:43.228
5               0:31:22.480     0:08:24.437     950 kbps        1 627 kbps      00:39:44.915    1 085 kbps      00:39:40.911    1 018 kbps      00:39:35.906    3 962 bytes     89 916 bytes    00:31:23.448
6               0:39:46.917     0:03:57.737     950 kbps        1 474 kbps      00:43:42.953    1 055 kbps      00:43:38.949    1 002 kbps      00:43:33.944    3 962 bytes     89 917 bytes    00:39:47.885
7               0:43:44.655     0:06:58.684     950 kbps        1 403 kbps      00:50:41.772    1 041 kbps      00:50:37.768    995 kbps        00:50:32.763    3 962 bytes     89 916 bytes    00:43:45.623
8               0:50:43.340     0:05:50.016     950 kbps        1 544 kbps      00:56:31.588    1 069 kbps      00:56:27.584    1 009 kbps      00:56:22.579    3 962 bytes     89 916 bytes    00:50:44.307
9               0:56:33.356     0:12:06.892     950 kbps        1 353 kbps      01:08:38.681    1 031 kbps      01:08:34.677    990 kbps        01:08:29.672    3 962 bytes     89 916 bytes    00:56:34.324
10              1:08:40.249     0:07:30.483     950 kbps        1 302 kbps      01:16:09.197    1 021 kbps      01:16:05.193    985 kbps        01:16:00.188    3 962 bytes     89 945 bytes    01:08:41.217
11              1:16:10.732     0:10:14.847     950 kbps        1 373 kbps      01:26:23.945    1 035 kbps      01:26:19.941    992 kbps        01:26:14.936    3 962 bytes     89 945 bytes    01:16:11.700
12              1:26:25.580     0:08:25.571     950 kbps        1 333 kbps      01:34:49.684    1 027 kbps      01:34:45.680    988 kbps        01:34:40.675    3 962 bytes     89 945 bytes    01:26:26.548
13              1:34:51.152     0:08:53.432     950 kbps        1 607 kbps      01:43:42.583    1 081 kbps      01:43:38.579    1 016 kbps      01:43:33.574    3 962 bytes     89 944 bytes    01:34:52.119
14              1:43:44.585     0:06:01.894     950 kbps        1 494 kbps      01:49:44.744    1 059 kbps      01:49:40.740    1 004 kbps      01:49:35.735    3 962 bytes     89 945 bytes    01:43:45.552
15              1:49:46.479     0:04:41.314     950 kbps        1 302 kbps      01:54:26.259    1 021 kbps      01:54:22.255    985 kbps        01:54:17.250    3 962 bytes     89 944 bytes    01:49:47.447
16              1:54:27.794     0:05:26.392     950 kbps        960 kbps        01:54:27.827    952 kbps        01:54:27.827    951 kbps        01:54:27.827    3 962 bytes     89 944 bytes    01:54:28.761
17              1:59:54.187     0:05:37.904     950 kbps        1 514 kbps      02:05:30.256    1 063 kbps      02:05:26.252    1 006 kbps      02:05:21.247    3 963 bytes     88 645 bytes    01:59:55.087
STREAM DIAGNOSTICS:
File            PID             Type            Codec           Language                Seconds                 Bitrate                 Bytes           Packets
----            ---             ----            -----           --------                --------------          --------------          -------------   -----
00017.M2TS      4113 (0x1011)   0x1B            AVC                                     7532,025                950                     894 450 902     4 890 984
00017.M2TS      4352 (0x1100)   0x80            LPCM            deu (German)            7532,025                4 614                   4 344 512 396   24 102 704
00017.M2TS      4353 (0x1101)   0x86            DTS-HD MA       deu (German)            7532,025                5 989                   5 639 126 928   31 820 501
QUICK SUMMARY:
Disc Title: SCHUMANN SYMPHONIESDisc Size: 46 112 130 173 bytesProtection: AACSBD-Java: YesPlaylist: 00000.MPLSSize: 11 724 779 520 bytesLength: 2:05:32.091Total Bitrate: 12,45 MbpsVideo: MPEG-4 AVC Video / 950 kbps / 1080i / 29,970 fps / 16:9 / High Profile 4.1Audio: German / LPCM Audio / 2.0 / 96 kHz / 4608 kbps / 24-bitAudio: German / DTS-HD Master Audio / 5.0 / 96 kHz / 5989 kbps / 24-bit (DTS Core: 5.0 / 48 kHz / 1509 kbps / 24-bit)
********************PLAYLIST: 00004.MPLS********************[/pre]
Total   Video
Title                                                           Codec   Length  Movie Size      Disc Size       Bitrate Bitrate Main Audio Track                          Secondary Audio Track
-----                                                           ------  ------- --------------  --------------  ------- ------- ------------------                        ---------------------
00004.MPLS                                                      AVC     0:43:49 8 342 267 904   46 112 130 173  25,38   20,00   LPCM 2.0 1536Kbps (48kHz/16-bit)          DTS-HD Master 5.0 2248Kbps (48kHz/16-bit)
DISC INFO:
Disc Title:     SCHUMANN SYMPHONIES
Disc Size:      46 112 130 173 bytes
Protection:     AACS
BD-Java:        Yes
BDInfo:         0.5.8
PLAYLIST REPORT:
Name:                   00004.MPLS
Length:                 0:43:49.727 (h:m:s.ms)
Size:                   8 342 267 904 bytes
Total Bitrate:          25,38 Mbps
VIDEO:
Codec                   Bitrate             Description
-----                   -------             -----------
MPEG-4 AVC Video        20000 kbps          1080i / 29,970 fps / 16:9 / High Profile 4.1
AUDIO:
Codec                           Language        Bitrate         Description
-----                           --------        -------         -----------
LPCM Audio                      German          1536 kbps       2.0 / 48 kHz / 1536 kbps / 16-bit
DTS-HD Master Audio             German          2248 kbps       5.0 / 48 kHz / 2248 kbps / 16-bit (DTS Core: 5.0 / 48 kHz / 1509 kbps / 16-bit)
FILES:
Name            Time In         Length          Size            Total Bitrate
----            -------         ------          ----            -------------
00008.M2TS      0:00:00.000     0:43:49.727     8 342 267 904   25 378
CHAPTERS:
Number          Time In         Length          Avg Video Rate  Max 1-Sec Rate  Max 1-Sec Time  Max 5-Sec Rate  Max 5-Sec Time  Max 10Sec Rate  Max 10Sec Time  Avg Frame Size  Max Frame Size  Max Frame Time
------          -------         ------          --------------  --------------  --------------  --------------  --------------  --------------  --------------  --------------  --------------  --------------
1               0:00:00.000     0:13:10.790     20 463 kbps     31 961 kbps     00:06:02.028    30 631 kbps     00:05:58.391    29 948 kbps     00:05:55.922    85 346 bytes    316 955 bytes   00:08:48.394
2               0:13:10.790     0:07:54.974     20 039 kbps     29 595 kbps     00:14:05.578    27 097 kbps     00:14:03.876    24 975 kbps     00:14:01.440    83 579 bytes    295 148 bytes   00:14:40.212
3               0:21:05.764     0:10:59.558     18 670 kbps     28 009 kbps     00:25:20.151    26 577 kbps     00:25:17.249    25 550 kbps     00:29:21.759    77 870 bytes    303 098 bytes   00:30:25.590
4               0:32:05.323     0:11:44.403     20 697 kbps     32 816 kbps     00:37:15.800    30 700 kbps     00:37:13.831    29 160 kbps     00:37:09.260    86 328 bytes    339 149 bytes   00:43:33.711
STREAM DIAGNOSTICS:
File            PID             Type            Codec           Language                Seconds                 Bitrate                 Bytes           Packets
----            ---             ----            -----           --------                --------------          --------------          -------------   -----
00008.M2TS      4113 (0x1011)   0x1B            AVC                                     2629,594                20 001                  6 574 164 863   35 775 010
00008.M2TS      4352 (0x1100)   0x80            LPCM            deu (German)            2629,594                1 542                   507 005 196     3 155 634
00008.M2TS      4353 (0x1101)   0x86            DTS-HD MA       deu (German)            2629,594                2 248                   738 855 184     4 430 543
QUICK SUMMARY:
Disc Title: SCHUMANN SYMPHONIESDisc Size: 46 112 130 173 bytesProtection: AACSBD-Java: YesPlaylist: 00004.MPLSSize: 8 342 267 904 bytesLength: 0:43:49.727Total Bitrate: 25,38 MbpsVideo: MPEG-4 AVC Video / 20000 kbps / 1080i / 29,970 fps / 16:9 / High Profile 4.1Audio: German / LPCM Audio / 2.0 / 48 kHz / 1536 kbps / 16-bitAudio: German / DTS-HD Master Audio / 5.0 / 48 kHz / 2248 kbps / 16-bit (DTS Core: 5.0 / 48 kHz / 1509 kbps / 16-bit)
********************PLAYLIST: 00002.MPLS********************[/pre]
Total   Video
Title                                                           Codec   Length  Movie Size      Disc Size       Bitrate Bitrate Main Audio Track                          Secondary Audio Track
-----                                                           ------  ------- --------------  --------------  ------- ------- ------------------                        ---------------------
00002.MPLS                                                      AVC     0:35:34 6 766 970 880   46 112 130 173  25,37   19,97   LPCM 2.0 1536Kbps (48kHz/16-bit)          DTS-HD Master 5.0 2270Kbps (48kHz/16-bit)
DISC INFO:
Disc Title:     SCHUMANN SYMPHONIES
Disc Size:      46 112 130 173 bytes
Protection:     AACS
BD-Java:        Yes
BDInfo:         0.5.8
PLAYLIST REPORT:
Name:                   00002.MPLS
Length:                 0:35:34.165 (h:m:s.ms)
Size:                   6 766 970 880 bytes
Total Bitrate:          25,37 Mbps
VIDEO:
Codec                   Bitrate             Description
-----                   -------             -----------
MPEG-4 AVC Video        19966 kbps          1080i / 29,970 fps / 16:9 / High Profile 4.1
AUDIO:
Codec                           Language        Bitrate         Description
-----                           --------        -------         -----------
LPCM Audio                      German          1536 kbps       2.0 / 48 kHz / 1536 kbps / 16-bit
DTS-HD Master Audio             German          2270 kbps       5.0 / 48 kHz / 2270 kbps / 16-bit (DTS Core: 5.0 / 48 kHz / 1509 kbps / 16-bit)
FILES:
Name            Time In         Length          Size            Total Bitrate
----            -------         ------          ----            -------------
00006.M2TS      0:00:00.000     0:00:07.006     12 767 232      14 577
00007.M2TS      0:00:07.006     0:35:27.158     6 754 203 648   25 402
CHAPTERS:
Number          Time In         Length          Avg Video Rate  Max 1-Sec Rate  Max 1-Sec Time  Max 5-Sec Rate  Max 5-Sec Time  Max 10Sec Rate  Max 10Sec Time  Avg Frame Size  Max Frame Size  Max Frame Time
------          -------         ------          --------------  --------------  --------------  --------------  --------------  --------------  --------------  --------------  --------------  --------------
1               0:00:00.000     0:12:27.146     19 494 kbps     30 548 kbps     00:03:07.520    28 358 kbps     00:01:30.690    26 979 kbps     00:10:26.892    81 308 bytes    317 196 bytes   00:09:16.856
2               0:12:27.146     0:05:52.285     19 877 kbps     28 823 kbps     00:13:39.518    27 051 kbps     00:12:37.923    26 397 kbps     00:12:35.554    82 903 bytes    320 064 bytes   00:14:38.577
3               0:18:19.431     0:05:35.268     20 801 kbps     32 476 kbps     00:22:33.719    29 503 kbps     00:21:19.911    27 779 kbps     00:19:54.693    86 759 bytes    355 495 bytes   00:19:58.297
4               0:23:54.699     0:11:39.465     20 116 kbps     31 720 kbps     00:25:33.965    30 895 kbps     00:25:33.665    30 397 kbps     00:33:22.600    83 903 bytes    328 243 bytes   00:31:23.481
STREAM DIAGNOSTICS:
File            PID             Type            Codec           Language                Seconds                 Bitrate                 Bytes           Packets
----            ---             ----            -----           --------                --------------          --------------          -------------   -----
00006.M2TS      4113 (0x1011)   0x1B            AVC                                     6,874                   10 525                  9 042 995       49 269
00006.M2TS      4352 (0x1100)   0x80            LPCM            deu (German)            6,874                   1 572                   1 350 564       8 406
00006.M2TS      4353 (0x1101)   0x86            DTS-HD MA       deu (German)            6,874                   1 591                   1 366 560       8 541
00007.M2TS      4113 (0x1011)   0x1B            AVC                                     2127,025                19 999                  5 317 427 667   28 936 231
00007.M2TS      4352 (0x1100)   0x80            LPCM            deu (German)            2127,025                1 542                   410 109 700     2 552 550
00007.M2TS      4353 (0x1101)   0x86            DTS-HD MA       deu (German)            2127,025                2 273                   604 300 712     3 618 061
QUICK SUMMARY:
Disc Title: SCHUMANN SYMPHONIESDisc Size: 46 112 130 173 bytesProtection: AACSBD-Java: YesPlaylist: 00002.MPLSSize: 6 766 970 880 bytesLength: 0:35:34.165Total Bitrate: 25,37 MbpsVideo: MPEG-4 AVC Video / 19966 kbps / 1080i / 29,970 fps / 16:9 / High Profile 4.1Audio: German / LPCM Audio / 2.0 / 48 kHz / 1536 kbps / 16-bitAudio: German / DTS-HD Master Audio / 5.0 / 48 kHz / 2270 kbps / 16-bit (DTS Core: 5.0 / 48 kHz / 1509 kbps / 16-bit)
********************PLAYLIST: 00005.MPLS********************[/pre]
Total   Video
Title                                                           Codec   Length  Movie Size      Disc Size       Bitrate Bitrate Main Audio Track                          Secondary Audio Track
-----                                                           ------  ------- --------------  --------------  ------- ------- ------------------                        ---------------------
00005.MPLS                                                      AVC     0:34:33 6 575 124 480   46 112 130 173  25,37   20,00   LPCM 2.0 1536Kbps (48kHz/16-bit)          DTS-HD Master 5.0 2241Kbps (48kHz/16-bit)
DISC INFO:
Disc Title:     SCHUMANN SYMPHONIES
Disc Size:      46 112 130 173 bytes
Protection:     AACS
BD-Java:        Yes
BDInfo:         0.5.8
PLAYLIST REPORT:
Name:                   00005.MPLS
Length:                 0:34:33.204 (h:m:s.ms)
Size:                   6 575 124 480 bytes
Total Bitrate:          25,37 Mbps
VIDEO:
Codec                   Bitrate             Description
-----                   -------             -----------
MPEG-4 AVC Video        19998 kbps          1080i / 29,970 fps / 16:9 / High Profile 4.1
AUDIO:
Codec                           Language        Bitrate         Description
-----                           --------        -------         -----------
LPCM Audio                      German          1536 kbps       2.0 / 48 kHz / 1536 kbps / 16-bit
DTS-HD Master Audio             German          2241 kbps       5.0 / 48 kHz / 2241 kbps / 16-bit (DTS Core: 5.0 / 48 kHz / 1509 kbps / 16-bit)
FILES:
Name            Time In         Length          Size            Total Bitrate
----            -------         ------          ----            -------------
00009.M2TS      0:00:00.000     0:34:33.204     6 575 124 480   25 372
CHAPTERS:
Number          Time In         Length          Avg Video Rate  Max 1-Sec Rate  Max 1-Sec Time  Max 5-Sec Rate  Max 5-Sec Time  Max 10Sec Rate  Max 10Sec Time  Avg Frame Size  Max Frame Size  Max Frame Time
------          -------         ------          --------------  --------------  --------------  --------------  --------------  --------------  --------------  --------------  --------------  --------------
1               0:00:00.000     0:09:28.768     20 752 kbps     33 996 kbps     00:02:54.674    32 895 kbps     00:02:53.072    28 894 kbps     00:02:52.272    86 547 bytes    414 259 bytes   00:02:58.077
2               0:09:28.768     0:06:25.017     19 426 kbps     34 027 kbps     00:12:32.685    31 994 kbps     00:12:31.484    31 063 kbps     00:12:31.917    81 023 bytes    404 167 bytes   00:10:34.934
3               0:15:53.786     0:04:51.724     18 698 kbps     26 361 kbps     00:19:14.353    25 306 kbps     00:19:13.585    24 487 kbps     00:19:11.617    77 988 bytes    351 834 bytes   00:19:18.590
4               0:20:45.510     0:05:38.337     19 187 kbps     33 789 kbps     00:23:23.468    32 977 kbps     00:23:22.801    31 800 kbps     00:23:18.096    80 027 bytes    373 014 bytes   00:22:39.124
5               0:26:23.848     0:08:09.355     20 907 kbps     34 094 kbps     00:33:03.381    32 943 kbps     00:33:03.348    32 099 kbps     00:33:01.913    87 204 bytes    433 339 bytes   00:30:34.232
STREAM DIAGNOSTICS:
File            PID             Type            Codec           Language                Seconds                 Bitrate                 Bytes           Packets
----            ---             ----            -----           --------                --------------          --------------          -------------   -----
00009.M2TS      4113 (0x1011)   0x1B            AVC                                     2073,071                19 999                  5 182 476 750   28 201 816
00009.M2TS      4352 (0x1100)   0x80            LPCM            deu (German)            2073,071                1 542                   399 708 140     2 487 810
00009.M2TS      4353 (0x1101)   0x86            DTS-HD MA       deu (German)            2073,071                2 242                   580 881 776     3 486 318
QUICK SUMMARY:
Disc Title: SCHUMANN SYMPHONIESDisc Size: 46 112 130 173 bytesProtection: AACSBD-Java: YesPlaylist: 00005.MPLSSize: 6 575 124 480 bytesLength: 0:34:33.204Total Bitrate: 25,37 MbpsVideo: MPEG-4 AVC Video / 19998 kbps / 1080i / 29,970 fps / 16:9 / High Profile 4.1Audio: German / LPCM Audio / 2.0 / 48 kHz / 1536 kbps / 16-bitAudio: German / DTS-HD Master Audio / 5.0 / 48 kHz / 2241 kbps / 16-bit (DTS Core: 5.0 / 48 kHz / 1509 kbps / 16-bit)
********************PLAYLIST: 00003.MPLS********************[/pre]
Total   Video
Title                                                           Codec   Length  Movie Size      Disc Size       Bitrate Bitrate Main Audio Track                          Secondary Audio Track
-----                                                           ------  ------- --------------  --------------  ------- ------- ------------------                        ---------------------
00003.MPLS                                                      AVC     0:27:05 5 159 540 736   46 112 130 173  25,39   20,00   LPCM 2.0 1536Kbps (48kHz/16-bit)          DTS-HD Master 5.0 2262Kbps (48kHz/16-bit)
DISC INFO:
Disc Title:     SCHUMANN SYMPHONIES
Disc Size:      46 112 130 173 bytes
Protection:     AACS
BD-Java:        Yes
BDInfo:         0.5.8
PLAYLIST REPORT:
Name:                   00003.MPLS
Length:                 0:27:05.657 (h:m:s.ms)
Size:                   5 159 540 736 bytes
Total Bitrate:          25,39 Mbps
VIDEO:
Codec                   Bitrate             Description
-----                   -------             -----------
MPEG-4 AVC Video        20000 kbps          1080i / 29,970 fps / 16:9 / High Profile 4.1
AUDIO:
Codec                           Language        Bitrate         Description
-----                           --------        -------         -----------
LPCM Audio                      German          1536 kbps       2.0 / 48 kHz / 1536 kbps / 16-bit
DTS-HD Master Audio             German          2262 kbps       5.0 / 48 kHz / 2262 kbps / 16-bit (DTS Core: 5.0 / 48 kHz / 1509 kbps / 16-bit)
FILES:
Name            Time In         Length          Size            Total Bitrate
----            -------         ------          ----            -------------
00010.M2TS      0:00:00.000     0:27:05.657     5 159 540 736   25 391
CHAPTERS:
Number          Time In         Length          Avg Video Rate  Max 1-Sec Rate  Max 1-Sec Time  Max 5-Sec Rate  Max 5-Sec Time  Max 10Sec Rate  Max 10Sec Time  Avg Frame Size  Max Frame Size  Max Frame Time
------          -------         ------          --------------  --------------  --------------  --------------  --------------  --------------  --------------  --------------  --------------  --------------
1               0:00:00.000     0:09:07.780     19 779 kbps     31 157 kbps     00:03:12.125    29 633 kbps     00:03:08.521    29 030 kbps     00:03:03.683    82 489 bytes    338 011 bytes   00:08:55.234
2               0:09:07.780     0:04:00.506     19 531 kbps     29 085 kbps     00:09:32.772    28 502 kbps     00:09:28.067    26 980 kbps     00:10:14.113    81 462 bytes    334 796 bytes   00:13:08.187
3               0:13:08.287     0:07:04.757     20 873 kbps     30 631 kbps     00:14:31.136    30 037 kbps     00:19:30.569    28 734 kbps     00:19:30.569    87 060 bytes    348 448 bytes   00:19:36.475
4               0:20:13.045     0:06:52.612     19 667 kbps     32 180 kbps     00:21:49.908    29 310 kbps     00:25:52.584    27 864 kbps     00:22:34.319    82 033 bytes    325 266 bytes   00:22:26.712
STREAM DIAGNOSTICS:
File            PID             Type            Codec           Language                Seconds                 Bitrate                 Bytes           Packets
----            ---             ----            -----           --------                --------------          --------------          -------------   -----
00010.M2TS      4113 (0x1011)   0x1B            AVC                                     1625,524                20 001                  4 064 087 568   22 115 746
00010.M2TS      4352 (0x1100)   0x80            LPCM            deu (German)            1625,524                1 542                   313 420 500     1 950 750
00010.M2TS      4353 (0x1101)   0x86            DTS-HD MA       deu (German)            1625,524                2 262                   459 651 172     2 751 622
QUICK SUMMARY:
Disc Title: SCHUMANN SYMPHONIESDisc Size: 46 112 130 173 bytesProtection: AACSBD-Java: YesPlaylist: 00003.MPLSSize: 5 159 540 736 bytesLength: 0:27:05.657Total Bitrate: 25,39 MbpsVideo: MPEG-4 AVC Video / 20000 kbps / 1080i / 29,970 fps / 16:9 / High Profile 4.1Audio: German / LPCM Audio / 2.0 / 48 kHz / 1536 kbps / 16-bitAudio: German / DTS-HD Master Audio / 5.0 / 48 kHz / 2262 kbps / 16-bit (DTS Core: 5.0 / 48 kHz / 1509 kbps / 16-bit)
********************PLAYLIST: 00006.MPLS********************[/pre]
Total   Video
Title                                                           Codec   Length  Movie Size      Disc Size       Bitrate Bitrate Main Audio Track                          Secondary Audio Track
-----                                                           ------  ------- --------------  --------------  ------- ------- ------------------                        ---------------------
00006.MPLS                                                      AVC     0:25:48 4 008 898 560   46 112 130 173  20,71   17,96   LPCM 2.0 1536Kbps (48kHz/16-bit)
DISC INFO:
Disc Title:     SCHUMANN SYMPHONIES
Disc Size:      46 112 130 173 bytes
Protection:     AACS
BD-Java:        Yes
BDInfo:         0.5.8
PLAYLIST REPORT:
Name:                   00006.MPLS
Length:                 0:25:48.813 (h:m:s.ms)
Size:                   4 008 898 560 bytes
Total Bitrate:          20,71 Mbps
VIDEO:
Codec                   Bitrate             Description
-----                   -------             -----------
MPEG-4 AVC Video        17960 kbps          1080i / 29,970 fps / 16:9 / High Profile 4.1
AUDIO:
Codec                           Language        Bitrate         Description
-----                           --------        -------         -----------
LPCM Audio                      German          1536 kbps       2.0 / 48 kHz / 1536 kbps / 16-bit
SUBTITLES:
Codec                           Language        Bitrate         Description
-----                           --------        -------         -----------
Presentation Graphics           German          41,146 kbps
FILES:
Name            Time In         Length          Size            Total Bitrate
----            -------         ------          ----            -------------
00000.M2TS      0:00:00.000     0:00:07.006     11 120 640      12 697
00013.M2TS      0:00:07.006     0:25:41.806     3 997 777 920   20 743
CHAPTERS:
Number          Time In         Length          Avg Video Rate  Max 1-Sec Rate  Max 1-Sec Time  Max 5-Sec Rate  Max 5-Sec Time  Max 10Sec Rate  Max 10Sec Time  Avg Frame Size  Max Frame Size  Max Frame Time
------          -------         ------          --------------  --------------  --------------  --------------  --------------  --------------  --------------  --------------  --------------  --------------
1               0:00:00.000     0:25:48.813     17 960 kbps     23 797 kbps     00:12:38.257    22 085 kbps     00:01:42.035    21 950 kbps     00:12:03.255    74 910 bytes    354 086 bytes   00:12:03.789
STREAM DIAGNOSTICS:
File            PID             Type            Codec           Language                Seconds                 Bitrate                 Bytes           Packets
----            ---             ----            -----           --------                --------------          --------------          -------------   -----
00000.M2TS      4113 (0x1011)   0x1B            AVC                                     6,874                   10 525                  9 042 995       49 269
00000.M2TS      4352 (0x1100)   0x80            LPCM            deu (German)            6,874                   1 572                   1 350 564       8 406
00013.M2TS      4113 (0x1011)   0x1B            AVC                                     1541,673                17 996                  3 468 052 998   18 875 060
00013.M2TS      4352 (0x1100)   0x80            LPCM            deu (German)            1541,673                1 543                   297 260 968     1 850 172
00013.M2TS      4608 (0x1200)   0x90            PGS             deu (German)            1541,673                41                      7 965 893       44 872
QUICK SUMMARY:
Disc Title: SCHUMANN SYMPHONIESDisc Size: 46 112 130 173 bytesProtection: AACSBD-Java: YesPlaylist: 00006.MPLSSize: 4 008 898 560 bytesLength: 0:25:48.813Total Bitrate: 20,71 MbpsVideo: MPEG-4 AVC Video / 17960 kbps / 1080i / 29,970 fps / 16:9 / High Profile 4.1Audio: German / LPCM Audio / 2.0 / 48 kHz / 1536 kbps / 16-bitSubtitle: German / 41,146 kbps
********************PLAYLIST: 00007.MPLS********************[/pre]
Total   Video
Title                                                           Codec   Length  Movie Size      Disc Size       Bitrate Bitrate Main Audio Track                          Secondary Audio Track
-----                                                           ------  ------- --------------  --------------  ------- ------- ------------------                        ---------------------
00007.MPLS                                                      AVC     0:10:34 1 474 897 920   46 112 130 173  18,59   15,93   LPCM 2.0 1536Kbps (48kHz/16-bit)
DISC INFO:
Disc Title:     SCHUMANN SYMPHONIES
Disc Size:      46 112 130 173 bytes
Protection:     AACS
BD-Java:        Yes
BDInfo:         0.5.8
PLAYLIST REPORT:
Name:                   00007.MPLS
Length:                 0:10:34.667 (h:m:s.ms)
Size:                   1 474 897 920 bytes
Total Bitrate:          18,59 Mbps
VIDEO:
Codec                   Bitrate             Description
-----                   -------             -----------
MPEG-4 AVC Video        15932 kbps          1080i / 29,970 fps / 16:9 / High Profile 4.1
AUDIO:
Codec                           Language        Bitrate         Description
-----                           --------        -------         -----------
LPCM Audio                      German          1536 kbps       2.0 / 48 kHz / 1536 kbps / 16-bit
SUBTITLES:
Codec                           Language        Bitrate         Description
-----                           --------        -------         -----------
Presentation Graphics           German          0,408 kbps
Presentation Graphics           English         41,014 kbps
FILES:
Name            Time In         Length          Size            Total Bitrate
----            -------         ------          ----            -------------
00000.M2TS      0:00:00.000     0:00:07.006     11 120 640      12 697
00014.M2TS      0:00:07.006     0:10:27.660     1 463 777 280   18 657
CHAPTERS:
Number          Time In         Length          Avg Video Rate  Max 1-Sec Rate  Max 1-Sec Time  Max 5-Sec Rate  Max 5-Sec Time  Max 10Sec Rate  Max 10Sec Time  Avg Frame Size  Max Frame Size  Max Frame Time
------          -------         ------          --------------  --------------  --------------  --------------  --------------  --------------  --------------  --------------  --------------  --------------
1               0:00:00.000     0:10:34.667     15 932 kbps     38 217 kbps     00:07:57.410    31 846 kbps     00:07:56.442    25 473 kbps     00:07:54.907    66 453 bytes    430 819 bytes   00:07:56.542
STREAM DIAGNOSTICS:
File            PID             Type            Codec           Language                Seconds                 Bitrate                 Bytes           Packets
----            ---             ----            -----           --------                --------------          --------------          -------------   -----
00000.M2TS      4113 (0x1011)   0x1B            AVC                                     6,874                   10 525                  9 042 995       49 269
00000.M2TS      4352 (0x1100)   0x80            LPCM            deu (German)            6,874                   1 572                   1 350 564       8 406
00014.M2TS      4113 (0x1011)   0x1B            AVC                                     627,527                 15 998                  1 254 898 889   6 831 038
00014.M2TS      4352 (0x1100)   0x80            LPCM            deu (German)            627,527                 1 543                   121 013 812     753 198
00014.M2TS      4608 (0x1200)   0x90            PGS             deu (German)            627,527                 0                       32 358          190
00014.M2TS      4609 (0x1201)   0x90            PGS             eng (English)           627,527                 41                      3 253 806       18 375
QUICK SUMMARY:
Disc Title: SCHUMANN SYMPHONIESDisc Size: 46 112 130 173 bytesProtection: AACSBD-Java: YesPlaylist: 00007.MPLSSize: 1 474 897 920 bytesLength: 0:10:34.667Total Bitrate: 18,59 MbpsVideo: MPEG-4 AVC Video / 15932 kbps / 1080i / 29,970 fps / 16:9 / High Profile 4.1Audio: German / LPCM Audio / 2.0 / 48 kHz / 1536 kbps / 16-bitSubtitle: German / 0,408 kbpsSubtitle: English / 41,014 kbps
********************PLAYLIST: 00001.MPLS********************[/pre]
Total   Video
Title                                                           Codec   Length  Movie Size      Disc Size       Bitrate Bitrate Main Audio Track                          Secondary Audio Track
-----                                                           ------  ------- --------------  --------------  ------- ------- ------------------                        ---------------------
00001.MPLS                                                      AVC     0:15:00 202 782 720     46 112 130 173  1,80    1,65
DISC INFO:
Disc Title:     SCHUMANN SYMPHONIES
Disc Size:      46 112 130 173 bytes
Protection:     AACS
BD-Java:        Yes
BDInfo:         0.5.8
PLAYLIST REPORT:
Name:                   00001.MPLS
Length:                 0:15:00.900 (h:m:s.ms)
Size:                   202 782 720 bytes
Total Bitrate:          1,80 Mbps
VIDEO:
Codec                   Bitrate             Description
-----                   -------             -----------
MPEG-4 AVC Video        1652 kbps           1080i / 29,970 fps / 16:9 / High Profile 4.1
FILES:
Name            Time In         Length          Size            Total Bitrate
----            -------         ------          ----            -------------
00001.M2TS      0:00:00.000     0:15:00.900     202 782 720     1 801
CHAPTERS:
Number          Time In         Length          Avg Video Rate  Max 1-Sec Rate  Max 1-Sec Time  Max 5-Sec Rate  Max 5-Sec Time  Max 10Sec Rate  Max 10Sec Time  Avg Frame Size  Max Frame Size  Max Frame Time
------          -------         ------          --------------  --------------  --------------  --------------  --------------  --------------  --------------  --------------  --------------  --------------
1               0:00:00.000     0:15:00.900     1 652 kbps      2 262 kbps      00:00:00.200    1 800 kbps      00:00:00.400    1 713 kbps      00:00:00.200    6 890 bytes     104 174 bytes   00:10:14.413
STREAM DIAGNOSTICS:
File            PID             Type            Codec           Language                Seconds                 Bitrate                 Bytes           Packets
----            ---             ----            -----           --------                --------------          --------------          -------------   -----
00001.M2TS      4113 (0x1011)   0x1B            AVC                                     900,800                 1 652                   186 042 583     1 025 965
QUICK SUMMARY:
Disc Title: SCHUMANN SYMPHONIESDisc Size: 46 112 130 173 bytesProtection: AACSBD-Java: YesPlaylist: 00001.MPLSSize: 202 782 720 bytesLength: 0:15:00.900Total Bitrate: 1,80 MbpsVideo: MPEG-4 AVC Video / 1652 kbps / 1080i / 29,970 fps / 16:9 / High Profile 4.1
********************PLAYLIST: 00010.MPLS********************[/pre]
Total   Video
Title                                                           Codec   Length  Movie Size      Disc Size       Bitrate Bitrate Main Audio Track                          Secondary Audio Track
-----                                                           ------  ------- --------------  --------------  ------- ------- ------------------                        ---------------------
00010.MPLS                                                      AVC     0:05:07 714 940 416     46 112 130 173  18,61   15,99   LPCM 2.0 1536Kbps (48kHz/16-bit)
DISC INFO:
Disc Title:     SCHUMANN SYMPHONIES
Disc Size:      46 112 130 173 bytes
Protection:     AACS
BD-Java:        Yes
BDInfo:         0.5.8
PLAYLIST REPORT:
Name:                   00010.MPLS
Length:                 0:05:07.340 (h:m:s.ms)
Size:                   714 940 416 bytes
Total Bitrate:          18,61 Mbps
VIDEO:
Codec                   Bitrate             Description
-----                   -------             -----------
MPEG-4 AVC Video        15993 kbps          1080i / 29,970 fps / 16:9 / High Profile 4.1
AUDIO:
Codec                           Language        Bitrate         Description
-----                           --------        -------         -----------
LPCM Audio                      German          1536 kbps       2.0 / 48 kHz / 1536 kbps / 16-bit
FILES:
Name            Time In         Length          Size            Total Bitrate
----            -------         ------          ----            -------------
00011.M2TS      0:00:00.000     0:05:07.340     714 940 416     18 610
CHAPTERS:
Number          Time In         Length          Avg Video Rate  Max 1-Sec Rate  Max 1-Sec Time  Max 5-Sec Rate  Max 5-Sec Time  Max 10Sec Rate  Max 10Sec Time  Avg Frame Size  Max Frame Size  Max Frame Time
------          -------         ------          --------------  --------------  --------------  --------------  --------------  --------------  --------------  --------------  --------------  --------------
1               0:00:00.000     0:05:07.340     15 993 kbps     31 965 kbps     00:01:53.046    23 964 kbps     00:04:03.743    23 216 kbps     00:04:03.676    66 703 bytes    304 993 bytes   00:01:57.617
STREAM DIAGNOSTICS:
File            PID             Type            Codec           Language                Seconds                 Bitrate                 Bytes           Packets
----            ---             ----            -----           --------                --------------          --------------          -------------   -----
00011.M2TS      4113 (0x1011)   0x1B            AVC                                     307,207                 16 000                  614 400 797     3 344 512
00011.M2TS      4352 (0x1100)   0x80            LPCM            deu (German)            307,207                 1 543                   59 256 116      368 814
QUICK SUMMARY:
Disc Title: SCHUMANN SYMPHONIESDisc Size: 46 112 130 173 bytesProtection: AACSBD-Java: YesPlaylist: 00010.MPLSSize: 714 940 416 bytesLength: 0:05:07.340Total Bitrate: 18,61 MbpsVideo: MPEG-4 AVC Video / 15993 kbps / 1080i / 29,970 fps / 16:9 / High Profile 4.1Audio: German / LPCM Audio / 2.0 / 48 kHz / 1536 kbps / 16-bit
********************PLAYLIST: 00011.MPLS********************[/pre]
Total   Video
Title                                                           Codec   Length  Movie Size      Disc Size       Bitrate Bitrate Main Audio Track                          Secondary Audio Track
-----                                                           ------  ------- --------------  --------------  ------- ------- ------------------                        ---------------------
00011.MPLS                                                      AVC     0:05:07 714 921 984     46 112 130 173  18,61   15,99   LPCM 2.0 1536Kbps (48kHz/16-bit)
DISC INFO:
Disc Title:     SCHUMANN SYMPHONIES
Disc Size:      46 112 130 173 bytes
Protection:     AACS
BD-Java:        Yes
BDInfo:         0.5.8
PLAYLIST REPORT:
Name:                   00011.MPLS
Length:                 0:05:07.340 (h:m:s.ms)
Size:                   714 921 984 bytes
Total Bitrate:          18,61 Mbps
VIDEO:
Codec                   Bitrate             Description
-----                   -------             -----------
MPEG-4 AVC Video        15992 kbps          1080i / 29,970 fps / 16:9 / High Profile 4.1
AUDIO:
Codec                           Language        Bitrate         Description
-----                           --------        -------         -----------
LPCM Audio                      German          1536 kbps       2.0 / 48 kHz / 1536 kbps / 16-bit
FILES:
Name            Time In         Length          Size            Total Bitrate
----            -------         ------          ----            -------------
00012.M2TS      0:00:00.000     0:05:07.340     714 921 984     18 609
CHAPTERS:
Number          Time In         Length          Avg Video Rate  Max 1-Sec Rate  Max 1-Sec Time  Max 5-Sec Rate  Max 5-Sec Time  Max 10Sec Rate  Max 10Sec Time  Avg Frame Size  Max Frame Size  Max Frame Time
------          -------         ------          --------------  --------------  --------------  --------------  --------------  --------------  --------------  --------------  --------------  --------------
1               0:00:00.000     0:05:07.340     15 992 kbps     31 977 kbps     00:01:53.046    24 013 kbps     00:04:03.743    23 252 kbps     00:04:03.676    66 701 bytes    304 991 bytes   00:01:57.617
STREAM DIAGNOSTICS:
File            PID             Type            Codec           Language                Seconds                 Bitrate                 Bytes           Packets
----            ---             ----            -----           --------                --------------          --------------          -------------   -----
00012.M2TS      4113 (0x1011)   0x1B            AVC                                     307,207                 15 999                  614 384 013     3 344 419
00012.M2TS      4352 (0x1100)   0x80            LPCM            deu (German)            307,207                 1 543                   59 256 116      368 814
QUICK SUMMARY:
Disc Title: SCHUMANN SYMPHONIESDisc Size: 46 112 130 173 bytesProtection: AACSBD-Java: YesPlaylist: 00011.MPLSSize: 714 921 984 bytesLength: 0:05:07.340Total Bitrate: 18,61 MbpsVideo: MPEG-4 AVC Video / 15992 kbps / 1080i / 29,970 fps / 16:9 / High Profile 4.1Audio: German / LPCM Audio / 2.0 / 48 kHz / 1536 kbps / 16-bit
********************PLAYLIST: 00008.MPLS********************[/pre]
Total   Video
Title                                                           Codec   Length  Movie Size      Disc Size       Bitrate Bitrate Main Audio Track                          Secondary Audio Track
-----                                                           ------  ------- --------------  --------------  ------- ------- ------------------                        ---------------------
00008.MPLS                                                      AVC     0:01:24 217 626 624     46 112 130 173  20,70   17,99   LPCM 2.0 1536Kbps (48kHz/16-bit)
DISC INFO:
Disc Title:     SCHUMANN SYMPHONIES
Disc Size:      46 112 130 173 bytes
Protection:     AACS
BD-Java:        Yes
BDInfo:         0.5.8
PLAYLIST REPORT:
Name:                   00008.MPLS
Length:                 0:01:24.117 (h:m:s.ms)
Size:                   217 626 624 bytes
Total Bitrate:          20,70 Mbps
VIDEO:
Codec                   Bitrate             Description
-----                   -------             -----------
MPEG-4 AVC Video        17993 kbps          1080i / 29,970 fps / 16:9 / High Profile 4.1
AUDIO:
Codec                           Language        Bitrate         Description
-----                           --------        -------         -----------
LPCM Audio                      German          1536 kbps       2.0 / 48 kHz / 1536 kbps / 16-bit
FILES:
Name            Time In         Length          Size            Total Bitrate
----            -------         ------          ----            -------------
00018.M2TS      0:00:00.000     0:01:24.117     217 626 624     20 697
CHAPTERS:
Number          Time In         Length          Avg Video Rate  Max 1-Sec Rate  Max 1-Sec Time  Max 5-Sec Rate  Max 5-Sec Time  Max 10Sec Rate  Max 10Sec Time  Avg Frame Size  Max Frame Size  Max Frame Time
------          -------         ------          --------------  --------------  --------------  --------------  --------------  --------------  --------------  --------------  --------------  --------------
1               0:00:00.000     0:01:24.117     17 993 kbps     36 607 kbps     00:00:05.105    30 474 kbps     00:00:02.702    24 380 kbps     00:00:02.602    75 048 bytes    333 461 bytes   00:01:11.738
STREAM DIAGNOSTICS:
File            PID             Type            Codec           Language                Seconds                 Bitrate                 Bytes           Packets
----            ---             ----            -----           --------                --------------          --------------          -------------   -----
00018.M2TS      4113 (0x1011)   0x1B            AVC                                     83,984                  18 022                  189 194 956     1 029 704
00018.M2TS      4352 (0x1100)   0x80            LPCM            deu (German)            83,984                  1 545                   16 218 336      100 944
QUICK SUMMARY:
Disc Title: SCHUMANN SYMPHONIESDisc Size: 46 112 130 173 bytesProtection: AACSBD-Java: YesPlaylist: 00008.MPLSSize: 217 626 624 bytesLength: 0:01:24.117Total Bitrate: 20,70 MbpsVideo: MPEG-4 AVC Video / 17993 kbps / 1080i / 29,970 fps / 16:9 / High Profile 4.1Audio: German / LPCM Audio / 2.0 / 48 kHz / 1536 kbps / 16-bit
********************PLAYLIST: 00009.MPLS********************[/pre]
Total   Video
Title                                                           Codec   Length  Movie Size      Disc Size       Bitrate Bitrate Main Audio Track                          Secondary Audio Track
-----                                                           ------  ------- --------------  --------------  ------- ------- ------------------                        ---------------------
00009.MPLS                                                      AVC     0:01:24 217 632 768     46 112 130 173  20,70   17,99   LPCM 2.0 1536Kbps (48kHz/16-bit)
DISC INFO:
Disc Title:     SCHUMANN SYMPHONIES
Disc Size:      46 112 130 173 bytes
Protection:     AACS
BD-Java:        Yes
BDInfo:         0.5.8
PLAYLIST REPORT:
Name:                   00009.MPLS
Length:                 0:01:24.117 (h:m:s.ms)
Size:                   217 632 768 bytes
Total Bitrate:          20,70 Mbps
VIDEO:
Codec                   Bitrate             Description
-----                   -------             -----------
MPEG-4 AVC Video        17993 kbps          1080i / 29,970 fps / 16:9 / High Profile 4.1
AUDIO:
Codec                           Language        Bitrate         Description
-----                           --------        -------         -----------
LPCM Audio                      German          1536 kbps       2.0 / 48 kHz / 1536 kbps / 16-bit
FILES:
Name            Time In         Length          Size            Total Bitrate
----            -------         ------          ----            -------------
00019.M2TS      0:00:00.000     0:01:24.117     217 632 768     20 698
CHAPTERS:
Number          Time In         Length          Avg Video Rate  Max 1-Sec Rate  Max 1-Sec Time  Max 5-Sec Rate  Max 5-Sec Time  Max 10Sec Rate  Max 10Sec Time  Avg Frame Size  Max Frame Size  Max Frame Time
------          -------         ------          --------------  --------------  --------------  --------------  --------------  --------------  --------------  --------------  --------------  --------------
1               0:00:00.000     0:01:24.117     17 993 kbps     36 710 kbps     00:00:04.704    30 585 kbps     00:00:02.702    24 507 kbps     00:00:02.602    75 048 bytes    333 771 bytes   00:01:11.738
STREAM DIAGNOSTICS:
File            PID             Type            Codec           Language                Seconds                 Bitrate                 Bytes           Packets
----            ---             ----            -----           --------                --------------          --------------          -------------   -----
00019.M2TS      4113 (0x1011)   0x1B            AVC                                     83,984                  18 022                  189 195 499     1 029 710
00019.M2TS      4352 (0x1100)   0x80            LPCM            deu (German)            83,984                  1 545                   16 218 336      100 944
QUICK SUMMARY:
Disc Title: SCHUMANN SYMPHONIESDisc Size: 46 112 130 173 bytesProtection: AACSBD-Java: YesPlaylist: 00009.MPLSSize: 217 632 768 bytesLength: 0:01:24.117Total Bitrate: 20,70 MbpsVideo: MPEG-4 AVC Video / 17993 kbps / 1080i / 29,970 fps / 16:9 / High Profile 4.1Audio: German / LPCM Audio / 2.0 / 48 kHz / 1536 kbps / 16-bit[/pre]

Скриншоты бонусного видео






Источник (релизер): HDGeek
Оркестр: Berliner Philharmoniker
Композитор: Robert Schumann
Дирижер: Simon Rattle



Ви не можете починати теми
Ви не можете відповідати на повідомлення
Ви не можете редагувати свої повідомлення
Ви не можете видаляти свої повідомлення
Ви не можете голосувати в опитуваннях
Ви не можете прикріплювати файли до повідомлень
Ви можете скачувати файли