[SACD-R][OF] Vivaldi: The Four Seasons (Le Quattro Stagioni, Op. 8) - Janine Jansen (Violin) (Candida Thompson, Henk Rubingh, Julian Rachlin, Maarten Jansen, Stacey Watton, Elisabeth Kenny, Jan Jansen) - 2004 (Classical, Violin)


Статистика роздачі [Оновити пиров]
Розмір:  2,12 GB   |    Зареєстрований:  1 рік   |    Скачано:  0 раз

Повного джерела не було: Ніколи

by Козак ®
09-Бер-2018 20:16


[SACD-R][OF] Vivaldi: The Four Seasons (Le Quattro Stagioni, Op. 8) - Janine Jansen (Violin) (Candida Thompson, Henk Rubingh, Julian Rachlin, Maarten Jansen, Stacey Watton, Elisabeth Kenny, Jan Jansen) - 2004 (Classical, Violin)

Janine Jansen • Violin
Vivaldi • The Four Seasons (Le Quattro Stagioni, Op. 8)
- Формат записи/Источник записи: [SACD-R][OF]
Наличие водяных знаков: Нет
Год издания/переиздания диска: 2004
Жанр: Classical, Violin
Издатель (лейбл): Decca Classics
Продолжительность: 00:38:32
Наличие сканов в содержимом раздачи: Только обложка альбома
Треклист:
Concerto No.1 "La Primavera" (Spring), RV 269
01 - 1. Allegro (3:19)
02 - 2. Largo (2:23)
03 - 3. Allegro (3:55)
Concerto No.2 "L'estate" (Summer), RV 315
04 - 1. Allegro non molto (5:15)
05 - 2. Adagio - Presto (2:12)
06 - 3. Presto (2:42)
Concerto No.3 "L'autunno" (Autumn), RV 293
07 - 1. Allegro (5:02)
08 - 2. Adagio molto (2:45)
09 - 3. Allegro (3:12)
Concerto No.4 "L'inverno" (Winter), RV 297
10 - 1. Allegro non molto (3:00)
11 - 2. Largo (1:33)
12 - 3. Allegro (3:14)
Контейнер: ISO (*.iso)
Тип рипа: image
Разрядность: 64(2,8 MHz/1 Bit)
Формат: DST64
Количество каналов: 5.1, 2.0

Official DR value: DR14

foobar2000 1.3.14 / Dynamic Range Meter 1.1.1log date: 2017-05-23 20:01:21
--------------------------------------------------------------------------------Analyzed: Violin: Janine Jansen / Vivaldi: The Four Seasons--------------------------------------------------------------------------------
DR Peak RMS Duration Track--------------------------------------------------------------------------------DR14 -1.43 dB -26.31 dB 3:19 01-Concerto No. 1 "La primavera": 1. AllegroDR14 -10.67 dB -33.68 dB 2:23 02-Concerto No. 1 "La primavera": 2. LargoDR13 -6.19 dB -26.77 dB 3:55 03-Concerto No. 1 "La primavera": 3. AllegroDR14 -2.65 dB -28.37 dB 5:15 04-Concerto No. 2 "L'estate": 1. Allegro non moltoDR18 -5.24 dB -36.10 dB 2:12 05-Concerto No. 2 "L'estate": 2. Adagio - PrestoDR13 -3.02 dB -23.29 dB 2:42 06-Concerto No. 2 "L'estate": 3. PrestoDR14 -3.78 dB -26.99 dB 5:02 07-Concerto No. 3 "L'autunno": 1. AllegroDR11 -17.77 dB -36.80 dB 2:45 08-Concerto No. 3 "L'autunno": 2. Adagio moltoDR14 -1.22 dB -24.26 dB 3:12 09-Concerto No. 3 "L'autunno": 3. AllegroDR14 -1.54 dB -26.13 dB 3:00 10-Concerto No. 4 "L'inverno": 1. Allegro non moltoDR12 -8.53 dB -29.67 dB 1:33 11-Concerto No. 4 "L'inverno": 2. LargoDR14 -4.28 dB -27.16 dB 3:14 12-Concerto No. 4 "L'inverno": 3. Allegro--------------------------------------------------------------------------------
Number of tracks: 12Official DR value: DR14
Samplerate: 2822400 Hz / PCM Samplerate: 88200 HzChannels: 6Bits per sample: 1Bitrate: 16934 kbpsCodec: DST64================================================================================
--------------------------------------------------------------------------------Analyzed: Violin: Janine Jansen / Vivaldi: The Four Seasons--------------------------------------------------------------------------------
DR Peak RMS Duration Track--------------------------------------------------------------------------------DR14 -1.04 dB -20.34 dB 3:19 01-Concerto No. 1 "La primavera": 1. AllegroDR12 -6.04 dB -27.35 dB 2:23 02-Concerto No. 1 "La primavera": 2. LargoDR12 -2.44 dB -20.93 dB 3:55 03-Concerto No. 1 "La primavera": 3. AllegroDR14 -1.05 dB -22.31 dB 5:15 04-Concerto No. 2 "L'estate": 1. Allegro non moltoDR18 -1.06 dB -29.98 dB 2:12 05-Concerto No. 2 "L'estate": 2. Adagio - PrestoDR13 -1.03 dB -17.23 dB 2:42 06-Concerto No. 2 "L'estate": 3. PrestoDR15 -1.05 dB -21.15 dB 5:02 07-Concerto No. 3 "L'autunno": 1. AllegroDR11 -14.78 dB -30.69 dB 2:45 08-Concerto No. 3 "L'autunno": 2. Adagio moltoDR14 -1.03 dB -18.53 dB 3:12 09-Concerto No. 3 "L'autunno": 3. AllegroDR14 -1.02 dB -20.33 dB 3:00 10-Concerto No. 4 "L'inverno": 1. Allegro non moltoDR12 -4.41 dB -23.49 dB 1:33 11-Concerto No. 4 "L'inverno": 2. LargoDR14 -1.04 dB -21.49 dB 3:14 12-Concerto No. 4 "L'inverno": 3. Allegro--------------------------------------------------------------------------------
Number of tracks: 12Official DR value: DR14
Samplerate: 2822400 Hz / PCM Samplerate: 88200 HzChannels: 2Bits per sample: 1Bitrate: 5645 kbpsCodec: DST64================================================================================

Спектр частот

Состав

Janine Jansen (violin)
Candida Thompson, Henk Rubingh (violin)
Julian Rachlin (viola)
Maarten Jansen (cello)
Stacey Watton (contrabas)
Elisabeth Kenny (theorbe)
Jan Jansen (clavecimbel, organ)

Об альбоме (сборнике)

Recording & Editing facilities by Emil Berliner Studios.
Editing facilities by Abbey Road Studios on behalf of Emil Berliner Studios.
Mixing facilities by Classic Sound Limited on behalf of Emil Berliner Studios.
Recording location: Yakult Zaal, Beurs van Berlage Concert & Congreszalen; 20-23 May 2004
℗ 2004 Decca Music Group Limited © 2004 Decca Music Group Limited.
Источник (релизер): WEB-



Ви не можете починати теми
Ви не можете відповідати на повідомлення
Ви не можете редагувати свої повідомлення
Ви не можете видаляти свої повідомлення
Ви не можете голосувати в опитуваннях
Ви не можете прикріплювати файли до повідомлень
Ви можете скачувати файли