[SACD-R][OF] Karol Szymanowski - Stabat Mater, Harnasie - Edward Gardner & BBC Symphony Orchestra, Lucie Crowe, Pamela Helen Stephen, Robert Murray, Gabor Bretz - 2013 (Classical, Vocal)


Статистика роздачі [Оновити пиров]
Розмір:  2,83 GB   |    Зареєстрований:  1 рік   |    Скачано:  0 раз

Повного джерела не було: Ніколи

by Козак ®
09-Бер-2018 20:16


[SACD-R][OF] Karol Szymanowski - Stabat Mater, Harnasie - Edward Gardner & BBC Symphony Orchestra, Lucie Crowe, Pamela Helen Stephen, Robert Murray, Gabor Bretz - 2013 (Classical, Vocal)

KAROL SZYMANOWSKI
Stabat Mater, Harnasie
Edward Gardner & BBC Symphony Orchestra
- Формат записи/Источник записи: [SACD-R][OF]
Наличие водяных знаков: Нет
Год издания/переиздания диска: 2013
Жанр: Classical, Vocal
Издатель (лейбл): Chandos (CHAN 5123)
Продолжительность: 00:58:08
Наличие сканов в содержимом раздачи: Только обложка альбома
Скачать буклет PDF
Контейнер: ISO (*.iso)
Тип рипа: image
Разрядность: 64(2,8 MHz/1 Bit)
Формат: DST64
Количество каналов: 5.0, 2.0-Оркестр: BBC Symphony Chorus & BBC Symphony Orchestra
Композитор: Karol Szymanowski (1882-1937)
Дирижер: Edward Gardner
Солисты:
Lucie Crowe, soprano
Pamela Helen Stephen, mezzo-soprano
Robert Murray, tenor
Gábor Bretz, baritone

Треклист

Stabat Mater
01 - 1. Stala Matka bolejaca (6:27)
02 - 2. I ktуz, widzac tak cierpiaca (2:20)
03 - 3. O Matko, zrуdlo wszechmilosci (3:57)
04 - 4. Spraw, niech placze z Toba razem (2:49)
05 - 5. Panno slodka, racz, mozolem (2:44)
06 - 6. Chrystus niech mi bedzie grodem (4:51)
Harnasie. Obraz I
07 - 1. Redyk (4:57)
08 - 2. Zaloty (2:11)
09 - 3. Marsz zbуjnicki (1:35)
10 - 4. Harnas i dziewczyna (3:47)
11 - 5. Taniec zbуjnicki (4:40)
Harnasie. Obraz II
12 - 6a. Wesele (2:26)
13 - 6b. Cepiny (1:59)
14 - 6c. Piesn siuhajуw (1:14)
15 - 7. Taniec gуralski (3:51)
16 - 8. Napad Harnasiуw (5:24)
17 - 9. Epilog (2:54)

Official DR value: DR13

foobar2000 1.3.14 / Dynamic Range Meter 1.1.1log date: 2017-05-24 09:26:11
--------------------------------------------------------------------------------Analyzed: BBCSO and Chorus with soloists conducted by Edward Gardner / Szymanowski : Stabat Mater, Op. 53 and Harnasie, Op. 55--------------------------------------------------------------------------------
DR Peak RMS Duration Track--------------------------------------------------------------------------------DR16 -9.82 dB -36.74 dB 6:27 01-Stabat Mater. 1. Stala Matka bolejacaDR13 -0.57 dB -23.40 dB 2:20 02-Stabat Mater. 2. I ktуz, widzac tak cierpiacaDR14 -7.06 dB -31.96 dB 3:57 03-Stabat Mater. 3. O Matko, zrуdlo wszechmilosciDR13 -10.16 dB -34.62 dB 2:49 04-Stabat Mater. 4. Spraw, niech placze z Toba razemDR11 0.00 dB -20.54 dB 2:44 05-Stabat Mater. 5. Panno slodka, racz, mozolemDR15 -6.51 dB -32.45 dB 4:51 06-Stabat Mater. 6. Chrystus niech mi bedzie grodemDR13 -9.37 dB -33.17 dB 4:57 07-Harnasie. Obraz I. 1. RedykDR15 -1.83 dB -31.63 dB 2:11 08-Harnasie. Obraz I continued. 2. ZalotyDR12 -2.41 dB -24.07 dB 1:35 09-Harnasie. Obraz I continued. 3. Marsz zbуjnickiDR12 -1.60 dB -25.52 dB 3:47 10-Harnasie. Obraz I continued. 4. Harnas i dziewczynaDR13 -5.41 dB -27.92 dB 4:40 11-Harnasie. Obraz I continued. 5. Taniec zbуjnickiDR12 -2.02 dB -20.38 dB 2:26 12-Harnasie. Obraz II. 6a. WeseleDR14 -3.40 dB -28.04 dB 1:59 13-Harnasie. Obraz II continued. 6b. CepinyDR14 -3.92 dB -26.55 dB 1:14 14-Harnasie. Obraz II continued. 6c. Piesn siuhajуwDR17 -0.28 dB -29.10 dB 3:51 15-Harnasie. Obraz II continued. 7. Taniec gуralskiDR13 -0.41 dB -23.54 dB 5:24 16-Harnasie. Obraz II continued. 8. Napad HarnasiуwDR13 -20.32 dB -42.18 dB 2:54 17-Harnasie. Obraz II continued. 9. Epilog--------------------------------------------------------------------------------
Number of tracks: 17Official DR value: DR13
Samplerate: 2822400 Hz / PCM Samplerate: 88200 HzChannels: 5Bits per sample: 1Bitrate: 14112 kbpsCodec: DST64================================================================================
--------------------------------------------------------------------------------Analyzed: BBCSO and Chorus with soloists conducted by Edward Gardner / Szymanowski : Stabat Mater, Op. 53 and Harnasie, Op. 55--------------------------------------------------------------------------------
DR Peak RMS Duration Track--------------------------------------------------------------------------------DR15 -10.34 dB -34.04 dB 6:27 01-Stabat Mater. 1. Stala Matka bolejacaDR13 -1.54 dB -20.83 dB 2:20 02-Stabat Mater. 2. I ktуz, widzac tak cierpiacaDR14 -7.87 dB -29.34 dB 3:57 03-Stabat Mater. 3. O Matko, zrуdlo wszechmilosciDR13 -11.24 dB -31.75 dB 2:49 04-Stabat Mater. 4. Spraw, niech placze z Toba razemDR12 0.00 dB -18.37 dB 2:44 05-Stabat Mater. 5. Panno slodka, racz, mozolemDR15 -6.69 dB -29.73 dB 4:51 06-Stabat Mater. 6. Chrystus niech mi bedzie grodemDR13 -10.50 dB -30.97 dB 4:57 07-Harnasie. Obraz I. 1. RedykDR14 -5.50 dB -29.45 dB 2:11 08-Harnasie. Obraz I continued. 2. ZalotyDR12 -3.20 dB -21.86 dB 1:35 09-Harnasie. Obraz I continued. 3. Marsz zbуjnickiDR13 -2.13 dB -23.29 dB 3:47 10-Harnasie. Obraz I continued. 4. Harnas i dziewczynaDR14 -5.99 dB -25.65 dB 4:40 11-Harnasie. Obraz I continued. 5. Taniec zbуjnickiDR11 -3.19 dB -18.55 dB 2:26 12-Harnasie. Obraz II. 6a. WeseleDR13 -4.67 dB -26.48 dB 1:59 13-Harnasie. Obraz II continued. 6b. CepinyDR13 -4.99 dB -24.64 dB 1:14 14-Harnasie. Obraz II continued. 6c. Piesn siuhajуwDR18 -0.81 dB -26.85 dB 3:51 15-Harnasie. Obraz II continued. 7. Taniec gуralskiDR13 -1.51 dB -21.81 dB 5:24 16-Harnasie. Obraz II continued. 8. Napad HarnasiуwDR13 -21.43 dB -40.09 dB 2:54 17-Harnasie. Obraz II continued. 9. Epilog--------------------------------------------------------------------------------
Number of tracks: 17Official DR value: DR13
Samplerate: 2822400 Hz / PCM Samplerate: 88200 HzChannels: 2Bits per sample: 1Bitrate: 5645 kbpsCodec: DST64================================================================================

Спектр частот

Источник (релизер): WEB-
[SACD-R][OF] Karol Szymanowski - Symphonies 1 and 3, Love Songs of Hafiz - Edward Gardner & BBC Symphony Orchestra - 2014 (Classical, Orchestral)
[SACD-R][OF] Karol Szymanowski - Symphonies 2 and 4, Concert Overture - Edward Gardner & BBC Symphony Orchestra, Louis Lortie - 2013 (Classical, Orchestral)



Ви не можете починати теми
Ви не можете відповідати на повідомлення
Ви не можете редагувати свої повідомлення
Ви не можете видаляти свої повідомлення
Ви не можете голосувати в опитуваннях
Ви не можете прикріплювати файли до повідомлень
Ви можете скачувати файли