[SACD-R][OF] Karol Szymanowski - Symphonies 1 and 3, Love Songs of Hafiz - Edward Gardner & BBC Symphony Orchestra, Ben Johnson - 2014 (Classical, Orchestral)


Статистика роздачі [Оновити пиров]
Розмір:  3,21 GB   |    Зареєстрований:  1 рік   |    Скачано:  0 раз

Повного джерела не було: Ніколи

by Козак ®
09-Бер-2018 20:16


[SACD-R][OF] Karol Szymanowski - Symphonies 1 and 3, Love Songs of Hafiz - Edward Gardner & BBC Symphony Orchestra, Ben Johnson - 2014 (Classical, Orchestral)

KAROL SZYMANOWSKI
Symphony No. 1
Symphony No. 3 'The Song of the Night'
Love Songs of Hafiz

Edward Gardner & BBC Symphony Orchestra
- Формат записи/Источник записи: [SACD-R][OF]
Наличие водяных знаков: Нет
Год издания/переиздания диска: 2014
Жанр: Classical, Orchestral
Издатель (лейбл): Chandos (CHAN 5143)
Продолжительность: 01:06:03
Наличие сканов в содержимом раздачи: Буклет PDF
Контейнер: ISO (*.iso)
Тип рипа: image
Разрядность: 64(2,8 MHz/1 Bit)
Формат: DST64
Количество каналов: 5.0, 2.0-Оркестр: BBC Symphony Chorus & BBC Symphony Orchestra
Stephen Jackson, chorus master
Stephen Bryant, orchestra leader
Композитор: Karol Szymanowski (1882-1937)
Дирижер: Edward Gardner
Солист: Ben Johnson, tenor

Треклист

Symphony No. 3 'The Song of the Night'
01 - Op. 27. Moderato assai (8:28)
02 - Allegretto tranquillo (7:08)
03 - Largo (10:25)
Love Songs of Hafiz
04 - I. Wünsche (1:31)
05 - II. Der verliebte Ostwind (1:50)
06 - III. Tanz (1:48)
07 - IV. Die Perlen meiner Seele (1:40)
08 - V. Jugend im Alter (2:47)
09 - VI. Deine Stimme (2:50)
10 - VII. Trinklied (2:36)
11 - VIII. Das Grab des Hafis (6:05)
Symphony No. 1
12 - [I]. Allegro patetico (9:59)
13 - III. Finale. Allegretto con moto (8:54)

Official DR value: DR13

foobar2000 1.3.14 / Dynamic Range Meter 1.1.1log date: 2017-05-26 20:52:40
--------------------------------------------------------------------------------Analyzed: BBCSO and Chorus conducted by Edward Gardner / Szymanowski - Symphonies 1 and 3 etc--------------------------------------------------------------------------------
DR Peak RMS Duration Track--------------------------------------------------------------------------------DR14 -0.30 dB -23.73 dB 8:28 01-Symphony No. 3, Op. 27. Moderato assaiDR13 -5.49 dB -30.52 dB 7:08 02-Symphony No. 3 continued. Allegretto tranquilloDR14 0.00 dB -22.53 dB 10:25 03-Symphony No. 3 continued. LargoDR12 -12.17 dB -34.11 dB 1:31 04-Love Songs of Hafiz. I. WünscheDR12 -12.30 dB -33.15 dB 1:50 05-Love Songs of Hafiz. II. Der verliebte OstwindDR12 -12.93 dB -34.01 dB 1:48 06-Love Songs of Hafiz. III. TanzDR12 -18.00 dB -39.13 dB 1:40 07-Love Songs of Hafiz. IV. Die Perlen meiner SeeleDR12 -12.93 dB -33.63 dB 2:47 08-Love Songs of Hafiz. V. Jugend im AlterDR14 -16.75 dB -39.47 dB 2:50 09-Love Songs of Hafiz. VI. Deine StimmeDR13 -12.28 dB -33.39 dB 2:36 10-Love Songs of Hafiz. VII. TrinkliedDR15 -10.53 dB -35.22 dB 6:05 11-Love Songs of Hafiz. VIII. Das Grab des HafisDR15 -1.14 dB -25.58 dB 9:59 12-Symphony No. 1. [I]. Allegro pateticoDR15 0.00 dB -25.06 dB 8:54 13-Symphony No. 1. III. Finale. Allegretto con moto--------------------------------------------------------------------------------
Number of tracks: 13Official DR value: DR13
Samplerate: 2822400 Hz / PCM Samplerate: 88200 HzChannels: 5Bits per sample: 1Bitrate: 14112 kbpsCodec: DST64================================================================================
--------------------------------------------------------------------------------Analyzed: BBCSO and Chorus conducted by Edward Gardner / Szymanowski - Symphonies 1 and 3 etc--------------------------------------------------------------------------------
DR Peak RMS Duration Track--------------------------------------------------------------------------------DR13 -0.53 dB -21.35 dB 8:28 01-Symphony No. 3, Op. 27. Moderato assaiDR14 -5.65 dB -28.12 dB 7:08 02-Symphony No. 3 continued. Allegretto tranquilloDR13 0.00 dB -19.66 dB 10:25 03-Symphony No. 3 continued. LargoDR12 -11.04 dB -29.91 dB 1:31 04-Love Songs of Hafiz. I. WünscheDR12 -10.75 dB -29.02 dB 1:50 05-Love Songs of Hafiz. II. Der verliebte OstwindDR12 -12.63 dB -29.87 dB 1:48 06-Love Songs of Hafiz. III. TanzDR13 -17.22 dB -34.93 dB 1:40 07-Love Songs of Hafiz. IV. Die Perlen meiner SeeleDR12 -11.83 dB -29.69 dB 2:47 08-Love Songs of Hafiz. V. Jugend im AlterDR14 -14.92 dB -35.37 dB 2:50 09-Love Songs of Hafiz. VI. Deine StimmeDR12 -11.03 dB -29.42 dB 2:36 10-Love Songs of Hafiz. VII. TrinkliedDR15 -9.65 dB -31.24 dB 6:05 11-Love Songs of Hafiz. VIII. Das Grab des HafisDR15 -0.12 dB -22.53 dB 9:59 12-Symphony No. 1. [I]. Allegro pateticoDR15 0.00 dB -21.88 dB 8:54 13-Symphony No. 1. III. Finale. Allegretto con moto--------------------------------------------------------------------------------
Number of tracks: 13Official DR value: DR13
Samplerate: 2822400 Hz / PCM Samplerate: 88200 HzChannels: 2Bits per sample: 1Bitrate: 5645 kbpsCodec: DST64================================================================================

Спектр частот

Источник (релизер): WEB-
[SACD-R][OF] Karol Szymanowski - Stabat Mater, Harnasie - Edward Gardner & BBC Symphony Orchestra - 2013 (Classical, Vocal)
[SACD-R][OF] Karol Szymanowski - Symphonies 2 and 4, Concert Overture - Edward Gardner & BBC Symphony Orchestra, Louis Lortie - 2013 (Classical, Orchestral)



Ви не можете починати теми
Ви не можете відповідати на повідомлення
Ви не можете редагувати свої повідомлення
Ви не можете видаляти свої повідомлення
Ви не можете голосувати в опитуваннях
Ви не можете прикріплювати файли до повідомлень
Ви можете скачувати файли