[SACD-R][OF] Karol Szymanowski - Symphonies 2 and 4, Concert Overture - Edward Gardner & BBC Symphony Orchestra, Louis Lortie - 2013 (Classical, Orchestral)


Статистика роздачі [Оновити пиров]
Розмір:  3,49 GB   |    Зареєстрований:  1 рік   |    Скачано:  0 раз

Повного джерела не було: Ніколи

by Козак ®
09-Бер-2018 20:16


[SACD-R][OF] Karol Szymanowski - Symphonies 2 and 4, Concert Overture - Edward Gardner & BBC Symphony Orchestra, Louis Lortie - 2013 (Classical, Orchestral)

KAROL SZYMANOWSKI
Symphony No. 2
Symphony No. 4 'Symphonie concertante'
Concert Overture

Edward Gardner & BBC Symphony Orchestra
- Формат записи/Источник записи: [SACD-R][OF]
Наличие водяных знаков: Нет
Год издания/переиздания диска: 2013
Жанр: Classical, Orchestral
Издатель (лейбл): Chandos (CHAN 5115)
Продолжительность: 01:10:27
Наличие сканов в содержимом раздачи: Буклет PDF
Контейнер: ISO (*.iso)
Тип рипа: image
Разрядность: 64(2,8 MHz/1 Bit)
Формат: DST64
Количество каналов: 5.0, 2.0-Оркестр: BBC Symphony Orchestra
Helena Wood, Stephen Bryant, leaders
Композитор: Karol Szymanowski (1882-1937)
Дирижер: Edward Gardner
Солист: Louis Lortie, piano

Треклист

01 - Concert Overture, Op. 12 (12:08)
Symphony No. 4, Op. 60
02 - I. Moderato (Tempo commodo) (9:48)
03 - II. Andante molto sostenuto - (8:51)
04 - III. Allegro non troppo, ma agitato... (6:31)
Symphony No. 2, Op. 19
05 - I. Allegro moderato (12:07)
06 - II. Theme. Lento - (1:30)
07 - II. Variation I. L'istesso tempo - (1:29)
08 - II. Variation II. L'istesso tempo - (1:56)
09 - II. Variation III. Scherzando. (2:30)
10 - II. Variation IV. Tempo di Gavotte - (2:42)
11 - II. Variation V. Tempo di Minuetto - (2:48)
12 - II. Finale. Introduzione. Variation VI. (1:17)
13 - II. Fuga finale (6:48)

Official DR value: DR13

foobar2000 1.3.14 / Dynamic Range Meter 1.1.1log date: 2017-05-28 13:35:53
--------------------------------------------------------------------------------Analyzed: BBC Symphony Orchestra conducted by Edward Gardner / Szymanowski - Orchestral Works, Volume I--------------------------------------------------------------------------------
DR Peak RMS Duration Track--------------------------------------------------------------------------------DR14 0.00 dB -21.64 dB 12:08 01-Concert Overture, Op. 12DR14 0.00 dB -24.06 dB 9:48 02-Symphony No. 4, Op. 60. I. Moderato (Tempo commodo)DR13 -2.58 dB -26.93 dB 8:51 03-Symphony No. 4, Op. 60. II. Andante molto sostenuto -DR14 0.00 dB -22.90 dB 6:31 04-Symphony No. 4, Op. 60. III. Allegro non troppo, ma agitato...DR14 0.00 dB -22.41 dB 12:07 05-Symphony No. 2, Op. 19. I. Allegro moderatoDR11 -17.54 dB -37.76 dB 1:30 06-Symphony No. 2, Op. 19. II. Theme. Lento -DR11 -6.81 dB -29.97 dB 1:29 07-Symphony No. 2, Op. 19. II. Variation I. L'istesso tempo -DR11 -10.31 dB -29.57 dB 1:56 08-Symphony No. 2, Op. 19. II. Variation II. L'istesso tempo -DR13 -3.45 dB -26.95 dB 2:30 09-Symphony No. 2, Op. 19. II. Variation III. Scherzando.DR12 -7.27 dB -28.42 dB 2:42 10-Symphony No. 2, Op. 19. II. Variation IV. Tempo di Gavotte -DR14 -8.61 dB -32.76 dB 2:48 11-Symphony No. 2, Op. 19. II. Variation V. Tempo di Minuetto -DR14 0.00 dB -24.93 dB 1:17 12-Symphony No. 2, Op. 19. II. Finale. Introduzione. Variation VI.DR14 -0.24 dB -24.13 dB 6:48 13-Symphony No. 2, Op. 19. II. Fuga finale--------------------------------------------------------------------------------
Number of tracks: 13Official DR value: DR13
Samplerate: 2822400 Hz / PCM Samplerate: 88200 HzChannels: 5Bits per sample: 1Bitrate: 14112 kbpsCodec: DST64================================================================================
--------------------------------------------------------------------------------Analyzed: BBC Symphony Orchestra conducted by Edward Gardner / Szymanowski - Orchestral Works, Volume I--------------------------------------------------------------------------------
DR Peak RMS Duration Track--------------------------------------------------------------------------------DR14 0.00 dB -18.57 dB 12:08 01-Concert Overture, Op. 12DR14 0.00 dB -20.51 dB 9:48 02-Symphony No. 4, Op. 60. I. Moderato (Tempo commodo)DR13 -2.67 dB -23.48 dB 8:51 03-Symphony No. 4, Op. 60. II. Andante molto sostenuto -DR14 0.00 dB -19.25 dB 6:31 04-Symphony No. 4, Op. 60. III. Allegro non troppo, ma agitato...DR14 0.00 dB -19.02 dB 12:07 05-Symphony No. 2, Op. 19. I. Allegro moderatoDR11 -17.29 dB -34.37 dB 1:30 06-Symphony No. 2, Op. 19. II. Theme. Lento -DR11 -6.97 dB -26.64 dB 1:29 07-Symphony No. 2, Op. 19. II. Variation I. L'istesso tempo -DR10 -10.69 dB -26.21 dB 1:56 08-Symphony No. 2, Op. 19. II. Variation II. L'istesso tempo -DR13 -3.51 dB -23.55 dB 2:30 09-Symphony No. 2, Op. 19. II. Variation III. Scherzando.DR12 -7.14 dB -25.01 dB 2:42 10-Symphony No. 2, Op. 19. II. Variation IV. Tempo di Gavotte -DR14 -8.46 dB -29.35 dB 2:48 11-Symphony No. 2, Op. 19. II. Variation V. Tempo di Minuetto -DR14 0.00 dB -21.72 dB 1:17 12-Symphony No. 2, Op. 19. II. Finale. Introduzione. Variation VI.DR14 0.00 dB -21.20 dB 6:48 13-Symphony No. 2, Op. 19. II. Fuga finale--------------------------------------------------------------------------------
Number of tracks: 13Official DR value: DR13
Samplerate: 2822400 Hz / PCM Samplerate: 88200 HzChannels: 2Bits per sample: 1Bitrate: 5645 kbpsCodec: DST64================================================================================

Спектр частот

Источник (релизер): WEB-
[SACD-R][OF] Karol Szymanowski - Stabat Mater, Harnasie - Edward Gardner & BBC Symphony Orchestra - 2013 (Classical, Vocal)
[SACD-R][OF] Karol Szymanowski - Symphonies 1 and 3, Love Songs of Hafiz - Edward Gardner & BBC Symphony Orchestra - 2014 (Classical, Orchestral)



Ви не можете починати теми
Ви не можете відповідати на повідомлення
Ви не можете редагувати свої повідомлення
Ви не можете видаляти свої повідомлення
Ви не можете голосувати в опитуваннях
Ви не можете прикріплювати файли до повідомлень
Ви можете скачувати файли