[SACD-R][OF] Vivica Genaux, Rene Jacobs, Akademie fur Alte Musik Berlin - Arias for Farinelli - 2003 (Classical/Opera/Vocal/Orchestral)


Статистика роздачі [Оновити пиров]
Розмір:  3,6 GB   |    Зареєстрований:  1 рік   |    Скачано:  0 раз

Повного джерела не було: Ніколи

by Козак ®
09-Бер-2018 20:16


[SACD-R][OF] Vivica Genaux, Rene Jacobs, Akademie fur Alte Musik Berlin - Arias for Farinelli - 2003 (Classical/Opera/Vocal/Orchestral)

Vivica Genaux, René Jacobs, Akademie für Alte Musik Berlin
Arias for Farinelli
- Формат записи/Источник записи: [SACD-R][OF]
Наличие водяных знаков: Нет
Год издания/переиздания диска: 2003
Жанр: Classical/Opera/Vocal/Orchestral
Издатель (лейбл): Harmonia Mundi
Продолжительность: 01:17:33
Наличие сканов в содержимом раздачи: Буклет PDF-Треклист:
Nicola Antonio Porpora [1686-1768]: Orfeo
1. "Dall'amor più sventurato"
Riccardo Broschi [1698-1756]: Idaspe
2. "Ombra fedele anch'io"
3. "Qual guerriero in campo armato"
Geminiano Giacomeli [1692-1740]: Adriano in Siria
4. "Mancare Dio mi sento"
Baldassare Galuppi [1706-1785]: Concerto a 4 in C minor
5. Grave
6. Allegro
7. Andante
Nicola Antonio Porpora [1686-1768]:
8. Polifemo "Oh volesser gli Dei... Dolci freschi aurette";
9. Artaserse "Or la nube procellosa" (ajout dans l'oeuvre de Johann Adolf Hasse)
Johann Adolf Hasse [1699-1783]: Artaserse
10. "Per questo dolce amplesso"
Geminiano Giacomeli [1692-1740]: Merope
11. "Quell'usignolo"-Vivica Genaux
Akademie für Alte Musik Berlin
René Jacobs-Контейнер: ISO (*.iso)
Тип рипа: image
Разрядность: 64(2,8 MHz/1 Bit)
Формат: DST64
Количество каналов: 5.0, 2.0-Доп. информация: Harmonia Mundi HMC 801778 (2003)
SACD rip via PS3 to iso (3.59GB)
Источник (релизер): PS³SACD
http://sa-cd.net/showtitle/1454

Лог DR

foobar2000 1.3.13 / Замер динамического диапазона (DR) 1.1.1Дата отчёта:  2017-05-07 03:15:09
--------------------------------------------------------------------------------Анализ: Vivica Genaux, mezzo-soprano / Akademie fьr Alte Musik Berlin / Dir. Renй Jacobs / Arias for Farinelli dit Carlo Broschi (1705-1782)--------------------------------------------------------------------------------
DR Пики RMS Продолжительность трека--------------------------------------------------------------------------------DR15 0.00 дБ -22.81 дБ 4:20 01-Dall'amor piщ sventuratoDR17 -2.12 дБ -27.85 дБ 10:07 02-Ombra fedele anch'ioDR15 0.00 дБ -22.88 дБ 8:09 03-Qual guerriero in campo armatoDR18 -0.63 дБ -27.22 дБ 11:19 04-Mancare Dio mi sentoDR12 -8.84 дБ -30.47 дБ 4:15 05-Grave / Concerto a 4 en do mineur / c-moll / C minorDR14 -7.88 дБ -27.04 дБ 3:42 06-Allegro / Concerto a 4 en do mineur / c-moll / C minorDR13 -11.27 дБ -31.51 дБ 2:06 07-Andante / Concerto a 4 en do mineur / c-moll / C minorDR17 -3.31 дБ -27.67 дБ 8:28 08-Oh volesser gli Dei... Dolci freschi auretteDR16 -0.68 дБ -23.06 дБ 4:51 09-Or la nube procellosaDR17 -0.53 дБ -26.40 дБ 6:10 10-Per questo dolce amplessoDR18 -0.27 дБ -26.69 дБ 14:07 11-Quell'usignolo--------------------------------------------------------------------------------
Количество треков: 11Реальные значения DR: DR16
Частота: 2822400 Гц / Частота PCM: 88200 ГцКаналов: 5Разрядность: 24Битрейт: 14112 кбит/сКодек: DST64================================================================================
--------------------------------------------------------------------------------Анализ: Vivica Genaux, mezzo-soprano / Akademie fьr Alte Musik Berlin / Dir. Renй Jacobs / Arias for Farinelli dit Carlo Broschi (1705-1782)--------------------------------------------------------------------------------
DR Пики RMS Продолжительность трека--------------------------------------------------------------------------------DR14 -0.10 дБ -18.04 дБ 4:19 01-Dall'amor piщ sventuratoDR17 -0.12 дБ -22.66 дБ 10:07 02-Ombra fedele anch'ioDR14 -0.12 дБ -18.16 дБ 8:09 03-Qual guerriero in campo armatoDR18 -0.14 дБ -21.95 дБ 11:19 04-Mancare Dio mi sentoDR12 -7.25 дБ -24.66 дБ 4:16 05-Grave / Concerto a 4 en do mineur / c-moll / C minorDR14 -2.54 дБ -21.50 дБ 3:42 06-Allegro / Concerto a 4 en do mineur / c-moll / C minorDR13 -7.94 дБ -26.16 дБ 2:06 07-Andante / Concerto a 4 en do mineur / c-moll / C minorDR18 -0.18 дБ -22.39 дБ 8:28 08-Oh volesser gli Dei... Dolci freschi auretteDR14 -0.12 дБ -17.97 дБ 4:50 09-Or la nube procellosaDR17 -0.16 дБ -21.64 дБ 6:10 10-Per questo dolce amplessoDR17 -0.08 дБ -21.66 дБ 14:07 11-Quell'usignolo--------------------------------------------------------------------------------
Количество треков: 11Реальные значения DR: DR15
Частота: 2822400 Гц / Частота PCM: 88200 ГцКаналов: 2Разрядность: 24Битрейт: 5645 кбит/сКодек: DST64================================================================================



Ви не можете починати теми
Ви не можете відповідати на повідомлення
Ви не можете редагувати свої повідомлення
Ви не можете видаляти свої повідомлення
Ви не можете голосувати в опитуваннях
Ви не можете прикріплювати файли до повідомлень
Ви можете скачувати файли