[SACD-R][OF] Jacintha - Best Of Jacintha - 2008 (Jazz, Jazz Vocal, Easy Listening)


Статистика роздачі [Оновити пиров]
Розмір:  3,11 GB   |    Зареєстрований:  1 місяць 12 днів   |    Скачано:  1 раз

Повного джерела не було: 1 місяць 9 днів

by Козак ®
14-Лют-2019 15:10


[SACD-R][OF] Jacintha - Best Of Jacintha - 2008 (Jazz, Jazz Vocal, Easy Listening)

Jacintha / Best Of Jacintha- Формат записи/Источник записи: [SACD-R][OF]
Наличие водяных знаков: Нет
Год издания/переиздания диска: 2008
Жанр: Jazz, Jazz Vocal, Easy Listening
Издатель (лейбл): Groove Note
Продолжительность: 01:18:54
Наличие сканов в содержимом раздачи: Да (сканы)-Треклист:
1. The Look Of Love – Here’s To Ben, GRVSA1001
02. Willow Weep For Me – Jacintha Is Her Name, GRVSAM1014
03. And The Angels Sing – Autumn Leaves, GRVSA1006
04. California Dreaming – Jacintha Goes To Hollywood, GRVSA1040
05. O Ganso – The Girl From Bossa Nova, GRVSAM1026
06. A Man And A Woman – Jacintha Goes To Hollywood, GRVSA1040
07. Something Cool -Jacintha Is Her Name, GRVSAM1014
08. Mahna Da Carnevale – Lush Life, GRVSAM1011
09. Autumn Leaves – Autumn Leaves, GRVSA1006
10. Once I Loved – The Girl From Bossa Nova, GRVSAM1026
11. Light My Fire – Jacintha Is Her Name, GRVSAM1014
12. Blvd Of Broken Dreams – Lush Life, GRVSAM1011
13. Windmills Of Your Mind – Jacintha Goes To Hollywood, GRVSA1040
14. Waters Of March – The Girl From Bossa Nova, GRVSAM1026
15. Danny Boy – Here’s To Ben, GRVSA1001-Контейнер: ISO (*.iso)
Тип рипа: image
Разрядность: 64(2,8 MHz/1 Bit)
Формат: DSD
Количество каналов: 2.0, 5.1-Доп. информация: GRV-1042-3 (2008)
Stereo and mulitchannel track: 2, 5, 8, 10, 11, 12, 14
Audiophile Bonus track. SACD layer only: 7
SACD rip via PS3 to iso (3.11GB)
Источник (релизер): ManWhoCan (PS³SACD)
http://www.elusivedisc.com/Jacintha-Best-Of-Jacintha-Hybrid-Multi-Channel-Stereo-...tinfo/GRVSA1042/
https://www.amazon.com/Best-Jacintha/dp/B0017SZ3B0

Лог DR

foobar2000 1.3.13 / Замер динамического диапазона (DR) 1.1.1Дата отчёта:  2019-02-02 07:47:48
--------------------------------------------------------------------------------Анализ: Jacintha / Best Of Jacintha--------------------------------------------------------------------------------
DR Пики RMS Продолжительность трека--------------------------------------------------------------------------------DR14 -3.35 дБ -26.31 дБ 5:29 01-The Look Of LoveDR15 -5.29 дБ -27.08 дБ 4:31 02-Willow Weep For MeDR15 -4.23 дБ -28.10 дБ 6:04 03-And The Angels SingDR15 -5.43 дБ -29.00 дБ 6:10 04-California DreamingDR13 -6.72 дБ -27.36 дБ 3:41 05-O GansoDR13 -4.98 дБ -25.83 дБ 4:01 06-A Man & A WomanDR15 -5.81 дБ -28.80 дБ 4:52 07-Something CoolDR24 -1.25 дБ -26.43 дБ 4:06 08-Mahna Da Carnevale--------------------------------------------------------------------------------
Количество треков: 8Реальные значения DR: DR16
Частота: 2822400 Гц / Частота PCM: 176400 ГцКаналов: 6Разрядность: 24Битрейт: 16934 кбит/сКодек: DST64================================================================================
--------------------------------------------------------------------------------Анализ: Jacintha / Best Of Jacintha--------------------------------------------------------------------------------
DR Пики RMS Продолжительность трека--------------------------------------------------------------------------------DR12 -6.85 дБ -23.66 дБ 4:09 01-The Look Of LoveDR14 -5.79 дБ -23.28 дБ 5:29 02-Willow Weep For MeDR13 -4.90 дБ -21.12 дБ 3:29 03-And The Angels SingDR13 -4.54 дБ -21.44 дБ 5:40 04-California DreamingDR14 -4.54 дБ -21.85 дБ 4:31 05-O GansoDR14 -4.20 дБ -21.16 дБ 5:19 06-A Man & A WomanDR14 -4.00 дБ -23.18 дБ 6:04 07-Something CoolDR15 -4.46 дБ -23.99 дБ 6:10 08-Mahna Da CarnevaleDR16 -4.43 дБ -24.92 дБ 7:45 09-Autumn LeavesDR13 -7.17 дБ -22.33 дБ 3:41 10-Once I LovedDR14 -5.70 дБ -22.36 дБ 4:01 11-Light My FireDR14 -5.07 дБ -24.30 дБ 4:52 12-Boulevard Of Broken DreamsDR15 -4.25 дБ -23.98 дБ 6:13 13-Windmills Of Your MindDR15 -4.41 дБ -22.45 дБ 4:06 14-Waters Of MarchDR13 -5.84 дБ -24.33 дБ 7:24 15-Danny Boy--------------------------------------------------------------------------------
Количество треков: 15Реальные значения DR: DR14
Частота: 2822400 Гц / Частота PCM: 176400 ГцКаналов: 2Разрядность: 24Битрейт: 5645 кбит/сКодек: DST64================================================================================

Об альбоме (сборнике)

Jacintha recorded her 1st album for Groove Note (Here’s To Ben) in 1998. Her latest & 6th release, Jacintha Goes To Hollywood was released in mid-2007 & marks 10 years with the Groove Note label, which we figured was a good enough excuse to release this 1st ever collection of the best performances from all her albums.
ELUSIVE:
For the first time ever, Groove Note presents a collection of the finest recordings by the incomparable Jacintha. Spanning a decade of musical output, this set is the definitive Jacintha sound.
With a timeless voice that resonates across the world, Jacintha is quickly becoming a modern classic. Her interpretations are smooth and sensuous, ranging from ballads to bossa nova. Jacintha is able to bring poignancy to any lyric, with a delivery that is both sultry and relaxing.
New fans and seasoned devotees alike will be amazed at the clarity of presentation on this compilation. Modern jazz has never sounded quite like Jacintha, and Jacintha has never sounded quite like this!
For the 1st time ever, Groove Note presents a collection of the finest recordings by the incomparable Jacintha. Spanning a decade of musical output, this set is the definitive Jacintha sound. With a timeless voice that resonates across the world, Jacintha is quickly becoming a modern classic. Her interpretations are smooth & sensuous, ranging from ballads to bossa nova. Jacintha is able to bring poignancy to any lyric, with a delivery that is both sultry & relaxing. New fans & seasoned devotees alike will be amazed at the clarity of presentation on this compilation. Modern jazz has never sounded quite like Jacintha, & Jacintha has never sounded quite like this!



Ви не можете починати теми
Ви не можете відповідати на повідомлення
Ви не можете редагувати свої повідомлення
Ви не можете видаляти свої повідомлення
Ви не можете голосувати в опитуваннях
Ви не можете прикріплювати файли до повідомлень
Ви можете скачувати файли