(Post-Bop) [CD] Keith Jarrett Trio - A Jazz Hour with Keith Jarrett: Hamburg Concert (2CD) - 1972 (2014), FLAC (tracks+.cue), lossless


Статистика роздачі [Оновити пиров]
Розмір:  533 MB   |    Зареєстрований:  1 місяць 13 днів   |    Скачано:  1 раз

Повного джерела не було: 1 місяць 9 днів

by Паночка ®
13-Лют-2019 21:30


(Post-Bop) [CD] Keith Jarrett Trio - A Jazz Hour with Keith Jarrett: Hamburg Concert (2CD) - 1972 (2014), FLAC (tracks+.cue), lossless

Keith Jarrett Trio - A Jazz Hour with Keith Jarrett: Hamburg Concert
Жанр: Post-Bop
Носитель: CD
Страна-производитель диска (релиза): EU
Год издания: 2014
Издатель (лейбл): Jazz Hour
Номер по каталогу: JHR 73951
Аудиокодек: FLAC (*.flac)
Тип рипа: tracks+.cue
Битрейт аудио: lossless
Продолжительность: 01:37:35
Источник: WhatNoItsMe
Наличие сканов в содержимом раздачи: нет

CD1 {43:16}

01. El Juicio (15:01)
02. Moonchild (8:04)
03. Follow the Crooked Path (6:24)
04. Standing Outside (6:15)
05. Bring Back the Time When (If) (7:32)

Лог создания рипа

Exact Audio Copy V1.1 from 23. June 2015
EAC extraction logfile from 17. November 2018, 8:20
Keith Jarrett Trio / Hamburg Concert
Used drive : HL-DT-STDVDRAM GP50NB40 Adapter: 1 ID: 0
Read mode : SecureUtilize accurate stream : YesDefeat audio cache : YesMake use of C2 pointers : No
Read offset correction : 6Overread into Lead-In and Lead-Out : NoFill up missing offset samples with silence : YesDelete leading and trailing silent blocks : NoNull samples used in CRC calculations : YesUsed interface : Native Win32 interface for Win NT & 2000Gap handling : Appended to previous track
Used output format : User Defined EncoderSelected bitrate : 1024 kBit/sQuality : HighAdd ID3 tag : NoCommand line compressor : C:\Program Files (x86)\Exact Audio Copy\Flac\flac.exeAdditional command line options : -8 -e -p -V -T "ARTIST=%artist%" -T "TITLE=%title%" -T "ALBUM=%albumtitle%" -T "DATE=%year%" -T "TRACKNUMBER=%tracknr%" -T "GENRE=%genre%" -T "PERFORMER=%albuminterpret%" -T "COMPOSER=%composer%" %haslyrics%--tag-from-file=LYRICS="%lyricsfile%"%haslyrics% -T "ALBUMARTIST=%albumartist%" -T "DISCNUMBER=%cdnumber%" -T "TOTALDISCS=%totalcds%" -T "TOTALTRACKS=%numtracks%" -T "COMMENT=%comment%" %source% -o %dest%
TOC of the extracted CD
Track | Start | Length | Start sector | End sector --------------------------------------------------------- 1 | 0:00.00 | 15:01.18 | 0 | 67592 2 | 15:01.18 | 8:03.73 | 67593 | 103890 3 | 23:05.16 | 6:24.37 | 103891 | 132727 4 | 29:29.53 | 6:15.36 | 132728 | 160888 5 | 35:45.14 | 7:32.30 | 160889 | 194818
Track 1
Filename C:\Staging\Keith Jarrett Trio - Hamburg Concert [JHR 73951]\CD1\01 - El Juicio.wav
Pre-gap length 0:00:02.00
Peak level 100.0 % Extraction speed 2.9 X Track quality 99.9 % Test CRC 6C0601D0 Copy CRC 6C0601D0 Accurately ripped (confidence 2) [4B0E6EB7] (AR v2) Copy OK
Track 2
Filename C:\Staging\Keith Jarrett Trio - Hamburg Concert [JHR 73951]\CD1\02 - Moonchild.wav
Peak level 77.6 % Extraction speed 4.1 X Track quality 100.0 % Test CRC E4AEF813 Copy CRC E4AEF813 Accurately ripped (confidence 2) [1F63412F] (AR v2) Copy OK
Track 3
Filename C:\Staging\Keith Jarrett Trio - Hamburg Concert [JHR 73951]\CD1\03 - Follow The Crooked Path.wav
Peak level 95.2 % Extraction speed 4.4 X Track quality 100.0 % Test CRC 7E163174 Copy CRC 7E163174 Accurately ripped (confidence 2) [96686F76] (AR v2) Copy OK
Track 4
Filename C:\Staging\Keith Jarrett Trio - Hamburg Concert [JHR 73951]\CD1\04 - Standing Outside.wav
Peak level 84.8 % Extraction speed 4.2 X Track quality 99.9 % Test CRC 37FA29AD Copy CRC 37FA29AD Accurately ripped (confidence 2) [F736A7C0] (AR v2) Copy OK
Track 5
Filename C:\Staging\Keith Jarrett Trio - Hamburg Concert [JHR 73951]\CD1\05 - Bring Back The Time When (If).wav
Peak level 89.9 % Extraction speed 5.0 X Track quality 100.0 % Test CRC 5E7A6F51 Copy CRC 5E7A6F51 Accurately ripped (confidence 1) [56B0783B] (AR v2) Copy OK
All tracks accurately ripped
No errors occurred
End of status report
---- CUETools DB Plugin V2.1.6
[CTDB TOCID: NQPdgpV05bajHCkdM1l20JkyIcQ-] disk not present in databaseSubmit result: NQPdgpV05bajHCkdM1l20JkyIcQ- has been uploaded
==== Log checksum C53EF9D5251E9A8A53EA64E8B9C890DF0E2199AFD03381D83DBED8CB2A367120 ====

Содержание индексной карты (.CUE)

REM GENRE JazzREM DATE 1972REM DISCID 3F0A2505REM COMMENT "ExactAudioCopy v1.1"PERFORMER "Keith Jarrett"TITLE "Hamburg Concert CD1"FILE "01 - El Juicio.wav" WAVE  TRACK 01 AUDIO    TITLE "El Juicio"    PERFORMER "Keith Jarrett"    INDEX 01 00:00:00FILE "02 - Moonchild.wav" WAVE  TRACK 02 AUDIO    TITLE "Moonchild"    PERFORMER "Keith Jarrett"    INDEX 01 00:00:00FILE "03 - Follow the Crooked Path.wav" WAVE  TRACK 03 AUDIO    TITLE "Follow the Crooked Path"    PERFORMER "Keith Jarrett"    INDEX 01 00:00:00FILE "04 - Standing Outside.wav" WAVE  TRACK 04 AUDIO    TITLE "Standing Outside"    PERFORMER "Keith Jarrett"    INDEX 01 00:00:00FILE "05 - Bring Back the Time When (If).wav" WAVE  TRACK 05 AUDIO    TITLE "Bring Back the Time When (If)"    PERFORMER "Keith Jarrett"    INDEX 01 00:00:00

Отчет CUETools

[CUETools log; Date: 13.02.2019 19:03:58; Version: 2.1.6][CTDB TOCID: NQPdgpV05bajHCkdM1l20JkyIcQ-] found.Track | CTDB Status  1   | (1/1) Accurately ripped  2   | (1/1) Accurately ripped  3   | (1/1) Accurately ripped  4   | (1/1) Accurately ripped  5   | (1/1) Accurately ripped[AccurateRip ID: 000a11d0-002d07db-3f0a2505] found.Track   [  CRC   |   V2   ] Status 01     [c5f3ff5d|4b0e6eb7] (0+3/3) Accurately ripped 02     [c034773c|1f63412f] (0+3/3) Accurately ripped 03     [bb2fe599|96686f76] (0+3/3) Accurately ripped 04     [37eed5a6|f736a7c0] (0+3/3) Accurately ripped 05     [fac163f3|56b0783b] (0+2/2) Accurately ripped
Track Peak [ CRC32 ] [W/O NULL] [ LOG ] -- 100,0 [ED009DFD] [9F3FD0B7] 01 100,0 [6C0601D0] [8534477E] CRC32 02 77,6 [E4AEF813] [468CCC24] CRC32 03 95,2 [7E163174] [7DCF8F87] CRC32 04 84,8 [37FA29AD] [AE19C483] CRC32 05 89,9 [5E7A6F51] [26B6B7A1] CRC32

CD2 {54:19}

01. Rainbow (7:22)
02. Solo Piano Improvisation (2:24)
03. Everything That Lives Laments (9:39)
04. Piece for Ornette (9:33)
05. Take Me Back (7:18)
06. Life Dance (3:50)
07. Song for Che (14:13)

Лог создания рипа

Exact Audio Copy V1.1 from 23. June 2015
EAC extraction logfile from 17. November 2018, 9:30
Keith Jarrett Trio / Hamburg Concert
Used drive : HL-DT-STDVDRAM GP50NB40 Adapter: 1 ID: 0
Read mode : SecureUtilize accurate stream : YesDefeat audio cache : YesMake use of C2 pointers : No
Read offset correction : 6Overread into Lead-In and Lead-Out : NoFill up missing offset samples with silence : YesDelete leading and trailing silent blocks : NoNull samples used in CRC calculations : YesUsed interface : Native Win32 interface for Win NT & 2000Gap handling : Appended to previous track
Used output format : User Defined EncoderSelected bitrate : 1024 kBit/sQuality : HighAdd ID3 tag : NoCommand line compressor : C:\Program Files (x86)\Exact Audio Copy\Flac\flac.exeAdditional command line options : -8 -e -p -V -T "ARTIST=%artist%" -T "TITLE=%title%" -T "ALBUM=%albumtitle%" -T "DATE=%year%" -T "TRACKNUMBER=%tracknr%" -T "GENRE=%genre%" -T "PERFORMER=%albuminterpret%" -T "COMPOSER=%composer%" %haslyrics%--tag-from-file=LYRICS="%lyricsfile%"%haslyrics% -T "ALBUMARTIST=%albumartist%" -T "DISCNUMBER=%cdnumber%" -T "TOTALDISCS=%totalcds%" -T "TOTALTRACKS=%numtracks%" -T "COMMENT=%comment%" %source% -o %dest%
TOC of the extracted CD
Track | Start | Length | Start sector | End sector --------------------------------------------------------- 1 | 0:00.00 | 7:22.18 | 0 | 33167 2 | 7:22.18 | 2:23.50 | 33168 | 43942 3 | 9:45.68 | 9:38.40 | 43943 | 87332 4 | 19:24.33 | 9:32.38 | 87333 | 130270 5 | 28:56.71 | 7:18.13 | 130271 | 163133 6 | 36:15.09 | 3:49.64 | 163134 | 180372 7 | 40:04.73 | 14:13.31 | 180373 | 244378
Track 1
Filename C:\Staging\Keith Jarrett Trio - Hamburg Concert [JHR 73951]\CD2\01 - Rainbow.wav
Pre-gap length 0:00:02.00
Peak level 68.5 % Extraction speed 1.2 X Track quality 99.9 % Test CRC AF4BAAB5 Copy CRC AF4BAAB5 Accurately ripped (confidence 2) [E0F55BDD] (AR v2) Copy OK
Track 2
Filename C:\Staging\Keith Jarrett Trio - Hamburg Concert [JHR 73951]\CD2\02 - Solo Piano Improvisation.wav
Peak level 75.8 % Extraction speed 1.3 X Track quality 100.0 % Test CRC 0607812B Copy CRC 0607812B Accurately ripped (confidence 2) [662C85EB] (AR v2) Copy OK
Track 3
Filename C:\Staging\Keith Jarrett Trio - Hamburg Concert [JHR 73951]\CD2\03 - Everything That Lives Laments.wav
Peak level 80.9 % Extraction speed 1.7 X Track quality 100.0 % Test CRC D1D0C3EF Copy CRC D1D0C3EF Accurately ripped (confidence 2) [532B942A] (AR v2) Copy OK
Track 4
Filename C:\Staging\Keith Jarrett Trio - Hamburg Concert [JHR 73951]\CD2\04 - Piece for Ornette.wav
Peak level 99.3 % Extraction speed 1.9 X Track quality 100.0 % Test CRC D4F168C9 Copy CRC D4F168C9 Accurately ripped (confidence 2) [472933DB] (AR v2) Copy OK
Track 5
Filename C:\Staging\Keith Jarrett Trio - Hamburg Concert [JHR 73951]\CD2\05 - Take Me Back.wav
Peak level 91.7 % Extraction speed 2.1 X Track quality 100.0 % Test CRC 97A3F36A Copy CRC 97A3F36A Accurately ripped (confidence 2) [0BBDD86F] (AR v2) Copy OK
Track 6
Filename C:\Staging\Keith Jarrett Trio - Hamburg Concert [JHR 73951]\CD2\06 - Life Dance.wav
Peak level 81.1 % Extraction speed 2.1 X Track quality 100.0 % Test CRC 90EAFE67 Copy CRC 90EAFE67 Accurately ripped (confidence 2) [699497C4] (AR v2) Copy OK
Track 7
Filename C:\Staging\Keith Jarrett Trio - Hamburg Concert [JHR 73951]\CD2\07 - Song for Che.wav
Peak level 92.2 % Extraction speed 2.5 X Track quality 100.0 % Test CRC 5DAE6D7B Copy CRC 5DAE6D7B Accurately ripped (confidence 1) [4864ADE4] (AR v2) Copy OK
All tracks accurately ripped
No errors occurred
End of status report
---- CUETools DB Plugin V2.1.6
[CTDB TOCID: JVB14ezjb41GsF4.5vVAdqQtEIY-] disk not present in databaseSubmit result: JVB14ezjb41GsF4.5vVAdqQtEIY- has been uploaded
==== Log checksum D03EC1752A98F26ACB45C98C4D39A5F83171F1A2D0AE41FAAA20024A83E9ECAE ====

Содержание индексной карты (.CUE)

REM GENRE JazzREM DATE 1972REM DISCID 600CBA07REM COMMENT "ExactAudioCopy v1.1"PERFORMER "Keith Jarrett"TITLE "Hamburg Concert CD2"FILE "01 - Rainbow.wav" WAVE  TRACK 01 AUDIO    TITLE "Rainbow"    PERFORMER "Keith Jarrett"    INDEX 01 00:00:00FILE "02 - Solo Piano Improvisation.wav" WAVE  TRACK 02 AUDIO    TITLE "Solo Piano Improvisation"    PERFORMER "Keith Jarrett"    INDEX 01 00:00:00FILE "03 - Everything That Lives Laments.wav" WAVE  TRACK 03 AUDIO    TITLE "Everything That Lives Laments"    PERFORMER "Keith Jarrett"    INDEX 01 00:00:00FILE "04 - Piece for Ornette.wav" WAVE  TRACK 04 AUDIO    TITLE "Piece for Ornette"    PERFORMER "Keith Jarrett"    INDEX 01 00:00:00FILE "05 - Take Me Back.wav" WAVE  TRACK 05 AUDIO    TITLE "Take Me Back"    PERFORMER "Keith Jarrett"    INDEX 01 00:00:00FILE "06 - Life Dance.wav" WAVE  TRACK 06 AUDIO    TITLE "Life Dance"    PERFORMER "Keith Jarrett"    INDEX 01 00:00:00FILE "07 - Song for Che.wav" WAVE  TRACK 07 AUDIO    TITLE "Song for Che"    PERFORMER "Keith Jarrett"    INDEX 01 00:00:00

Отчет CUETools

[CUETools log; Date: 13.02.2019 19:04:04; Version: 2.1.6][CTDB TOCID: JVB14ezjb41GsF4.5vVAdqQtEIY-] found.Track | CTDB Status  1   | (1/1) Accurately ripped  2   | (1/1) Accurately ripped  3   | (1/1) Accurately ripped  4   | (1/1) Accurately ripped  5   | (1/1) Accurately ripped  6   | (1/1) Accurately ripped  7   | (1/1) Accurately ripped[AccurateRip ID: 000d77a9-00525364-600cba07] found.Track   [  CRC   |   V2   ] Status 01     [f9ee78ea|e0f55bdd] (0+3/3) Accurately ripped 02     [09c1575e|662c85eb] (0+3/3) Accurately ripped 03     [dd456e1f|532b942a] (0+3/3) Accurately ripped 04     [2e0ef95b|472933db] (0+3/3) Accurately ripped 05     [97a12389|0bbdd86f] (0+3/3) Accurately ripped 06     [d8ea58c1|699497c4] (0+3/3) Accurately ripped 07     [4760579c|4864ade4] (0+2/2) Accurately ripped
Track Peak [ CRC32 ] [W/O NULL] [ LOG ] -- 99,3 [83E1F3BB] [BDDDAB1A] 01 68,5 [AF4BAAB5] [93FAC527] CRC32 02 75,8 [0607812B] [81593A86] CRC32 03 80,9 [D1D0C3EF] [34D5ED0E] CRC32 04 99,3 [D4F168C9] [9300F6D3] CRC32 05 91,7 [97A3F36A] [140CE6CE] CRC32 06 81,1 [90EAFE67] [C37329E8] CRC32 07 92,2 [5DAE6D7B] [B70F758D] CRC32

Состав

Keith Jarrett - piano
Charlie Haden - bass
Paul Motian - drums
Recorded live at Funkhaus, Hamburg, Germany on June 14, 1972.



Ви не можете починати теми
Ви не можете відповідати на повідомлення
Ви не можете редагувати свої повідомлення
Ви не можете видаляти свої повідомлення
Ви не можете голосувати в опитуваннях
Ви не можете прикріплювати файли до повідомлень
Ви можете скачувати файли