[SACD-R][OF] Mozart — Don Giovanni (Rene Jacobs, RIAS Kammerchor, Freiburger Barockorchester) - 2007 (Classical/Opera)


Статистика роздачі [Оновити пиров]
Розмір:  8,27 GB   |    Зареєстрований:  1 рік   |    Скачано:  0 раз

Повного джерела не було: Ніколи

by Козак ®
09-Бер-2018 20:16


[SACD-R][OF] Mozart — Don Giovanni (Rene Jacobs, RIAS Kammerchor, Freiburger Barockorchester) - 2007 (Classical/Opera)

René Jacobs, RIAS Kammerchor, Freiburger Barockorchester
Mozart — Don Giovanni
- Формат записи/Источник записи: [SACD-R][OF]
Наличие водяных знаков: Нет
Год издания/переиздания диска: 2007
Жанр: Classical/Opera
Издатель (лейбл): Harmonia Mundi
Продолжительность: 01:05:09
Наличие сканов в содержимом раздачи: Да (сканы)-Don Giovanni - Johannes Weisser (baritone)
Leporello - Lorenzo Regazzo (bass)
Donna Elvira - Alexandrina Pendatchanska (soprano)
Donna Anna - Olga Pasichnyk (soprano)
Don Ottavio - Kenneth Tarver (tenor)
Zerlina - Sunhae Im (soprano)
Masetto - Nikolay Borchev (bass)
Il Commendatore - Alessandro Guerzoni (bass)
RIAS Kammerchor
Freiburger Barockorchester
René Jacobs (conductor)-Доп. информация: SACD rip via PS3 to iso (8.22GB)
HMC 801964/66 (3 discs)
September 2007
Источник (релизер): WEB
http://sa-cd.net/showtitle/4769-Контейнер: ISO (*.iso)
Тип рипа: image
Разрядность: 64(2,8 MHz/1 Bit)
Формат: DSD
Количество каналов: 5.1, 2.0-Треклист:
Wolfgang Amadeus Mozart (1756-1791)
DON GIOVANNI
ossia il dissoluto punito
Dramma giocoso i due atti
Libretto Lorenzo da Ponte
Prague/Wien, 1787-88

Disc 1

1 Ouvertura 5'35
ATTO PRIMO
2 Scena I
No.1 Introduzione Leporello, Donna Anna, Don Giovanni, Il Commendatore Notte e giorno faticar 5'26
3 Scena II
Recitativo Don Giovanni, Leporello Leporello, ove sei? 0'31
4 Scena III
Recitativo Donna Anna, Don Ottavio Ah del padre in periglio
No.2 Recitativo accompagnato Donna Anna, Don Ottavio Ma qual mai s'offre, o Dei 2'52
5 Duetto Donna Anna, Don Ottavio Fuggi, crudele, fuggi! 3'53
6 Scena IV
Recitativo Don Giovanni, Leporello Orsà, spicciati presto 1'50
7 Scena V
No.3 Aria Donna Elvira, Don Giovanni, Leporello Ah chi mi dice mai 3'42
8 Recitativo Donna Elvira, Don Giovanni, Leporello Chi è là? 3'04
9 No.4 Aria Leporello Madamina, il catalogo è questo 5'15
10 Scena VI
Recitativo Donna Elvira In questa forma dunque 0'42
11 Scena VII
No.5 Coro Zerlina, Masetto, Coro di contadini Giovinette che fate all'amore 1'31
12 Scena VIII
Recitativo Don Giovanni, Leporello, Zerlina, Masetto Manco male è partita 2'14
13 No.6 Aria Masetto Ho capito, signor sì 1'34
14 Scena IX
Recitativo Don Giovanni, Zerlina Alfin siam liberati 1'49
15 No.7 Duettino Don Giovanni, Zerlina Là ci darem la mano 2'59
16 Scena X
Recitativo Donna Elvira, Zerlina, Don Giovanni Fermati scellerato 0'42
17 No.8 Aria Donna Elvira Ah fuggi il traditor 1'10
18 Scena XI
Recitativo Don Giovanni, Don Ottavio, Donna Anna Mi par ch'oggi il demonio si diverta 1'07
19 Scena XII
Recitativo Donna Elvira Ah ti ritrovo ancor
No.9 Quartetto Donna Elvira, Donna Anna, Don Ottavio, Don Giovanni Non ti fidar, o misera 3'27
20 Recitativo Don Giovanni Povera sventurata! 0'24
21 Scena XIII
No.10 Recitativo accompagnato Donna Anna, Don Ottavio Don Ottavio, son morta! 3'05
22 Aria Donna Anna Or sai chi l'onore 2'43
23 Scena XIV
Recitativo Don Ottavio Come mai creder deggio 0'30
24 No.10a Aria Don Ottavio Dalla sua pace 4'19

Disc 2

1 Scena XV
Recitativo Leporello, Don Giovanni Io deggio ad ogni patto 1'53
2 No.11 Aria Don Giovanni Fin ch'han dal vino 1'32
3 Scena XVI
Recitativo Zerlina, Masetto Masetto: senti un po' 1'19
4 No.12 Aria Zerlina Batti, batti, o bel Masetto 3'25
5 Recitativo Masetto, Don Giovanni, Zerlina Guarda un po' come seppe 0'36
6 No.13 Finale Masetto, Zerlina Presto presto pria chei venga
Scena XII
Don Giovanni, Servi Su svegliatevi, da bravi 1'37
7 Scena XIII
Zerlina, Don Giovanni, Masetto Tra quest'arbori celata 2'15
8 Scena XIX
Donna Elvira, Don Ottavio, Donna Anna, Leporello, Don Giovanni Bisogna aver coraggio 3'16
9 Scena XX
Don Giovanni, Leporello, Masetto, Zerlina, Donna Anna, Donna Elvira, Don Ottavio Riposate, vezzose ragazze 8'24
ATTO SECONDO
10 Scena I
No.14 Duetto Don Giovanni, Leporello Eh via buffone 1'01
11 Recitativo Don Giovanni, Leporello Leporello. / Signore. 2'04
12 Scena II
No.15 Terzetto Donna Elvira, Leporello, Don Giovanni Ah taci, ingiusto core 4'13
13 Recitativo Don Giovanni, Leporello Amico, che ti par?
Scena III
Recitativo Donna Elvira, Don Giovanni, Leporello Eccomi a voi! 2'19
14 No.16 Canzonetta Don Giovanni Deh vieni alla finestra 1'55
15 Recitativo Don Giovanni V'è gente alla finestra!
Scena IV
Recitativo Masetto, Don Giovanni Non ci stanchiamo 1'15
16 No.17 Aria Don Giovanni metà di voi qua vadano 2'40
17 Scena V
Recitativo Don Giovanni, Masetto Zitto! Lascia ch'io senta
Scena VI
Recitativo Masetto, Zerlina Ahi ahi! La testa mia! 2'06
18 No.18 Aria Zerlina Vedrai, carino 2'49
19 Scena VII
Recitativo Leporello, Donna Elvira Di molto faci il lume 0'37
20 No.19 Sestetto Donna Elvira, Leporello, Don Ottavio, Donna Anna, Zerlina, Masetto Sola sola in buio loco
Scena VIII
Ferma, briccone 7'04

Disc 3

1 Scena IX
Recitativo Zerlina, Donna Elvira, Don Ottavio, Masetto Dunque quello sei tu
Recitativo Leporello Ah pietà...
Scena X
Recitativo Donna Elvira, Masetto, Zerlina, Don Ottavio Ferma, perfido, ferma... 2'01
2 Scena Xa
Recitativo Zerlina, Leporello Restati qua! 1'46
3 No.21a Duetto Leporello, Zerlina Per queste tue manine 3'13
4 Scena Xb
Recitativo Leporello [Amico...]
Guarda un po'come stretto 1'15
5 Scena Xc
Recitativo Zerlina, Donna Elvira, Masetto Andiam, andiam, signora 1'02
6 Scena Xd
No.21b Recitativo accompagnato Donna Elvira In quali eccessi, o Numi 2'42
7 Aria Donna Elvira Mi tradi quell'alma ingrata 3'50
8 Scena XI
Recitativo Don Giovanni, Leporello, Il Commendatore Ah ah ah ah, questa è buona 4'16
9 No.22 Duetto Leporello, Don Giovanni O statua gentilissima 3'25
10 Scena XII
Recitativo Don Ottavio, Donna Anna Calmatevi, idol mio 0'59
11 No.23 Recitativo accompagnato Donna Anna Crudele! Ah no, mio bene! 1'30
12 Rondo Donna Anna Non mi dir, bell'idol mio 4'45
13 Recitativo Don Ottavio Ah, si segua il suo passo 0'19
14 Scena XIII
No.24 Finale Don Giovanni, Leporello Già la mensa è preparata 4'45
15 Scena XIV
Donna Elvira, Don Giovanni, Leporello L'ultima prova 3'49
16 Scena XV
Il Commendatore, Don Giovanni, Leporello, Coro Don Giovanni, a cenar teco 5'15
17 Scena ultima
Donna Anna, Donna Elvira, Zerlina, Don Ottavio, Masetto, Leporello Ah dove è il perfido 5'42
APPENDIX [PRAG-FASSUNG / VERSION PRAGUE]
18 Recitativo Zerlina, Donna Elvira, Don Ottavio, Masetto Dunque quello sei tu 0'27
19 No.20 Aria Leporello Ah pietà, signori miei 1'42
20 Recitativo Donna Elvira, Masetto, Zerlina, Don Ottavio Ferma, perfido, ferma 0'39
21 No.21 Aria Don Ottavio Il mio tesoro intanto 3'55
-

Лог DR

foobar2000 1.3.13 / Замер динамического диапазона (DR) 1.1.1Дата отчёта:  2017-07-13 14:21:44
--------------------------------------------------------------------------------Анализ: RIAS Kammerchor, Freiburger Barockorchester, Dir. Renй Jacobs / MOZART: DON GIOVANNI - Disc 1--------------------------------------------------------------------------------
DR Пики RMS Продолжительность трека--------------------------------------------------------------------------------DR11 0.00 дБ -19.70 дБ 5:35 01-OuverturaDR11 0.00 дБ -22.00 дБ 5:26 02-ATTO I, SC.I. NO.1 INTRODUZIONE "Notte e giorno faticar"DR13 -7.21 дБ -36.44 дБ 0:31 03-ATTO I, SC.II. RECITATIVO "Leporello, ove sei?"DR12 -0.30 дБ -24.92 дБ 2:52 04-ATTO I, SC.III. RECITATIVO "Ah del padre in periglio" / NO.2 RECITATIVO ACCOMP. "Ma qual mai s'offre, o Dei"DR12 0.00 дБ -21.47 дБ 3:54 05-ATTO I, SC.III. DUETTO "Fuggi, crudele, fuggi!"DR13 0.00 дБ -28.13 дБ 1:51 06-ATTO I, SC.IV. RECITATIVO "Orsщ, spicciati presto"DR11 -0.44 дБ -22.11 дБ 3:43 07-ATTO I, SC.V. NO.3 ARIA "Ah chi mi dice mai"DR12 -2.04 дБ -26.76 дБ 3:04 08-ATTO I, SC.V. RECITATIVO "Chi и lа?"DR11 -2.70 дБ -23.93 дБ 5:16 09-ATTO I, SC. V. NO.4 ARIA "Madamina, il catalogo и questo"DR12 -3.68 дБ -28.11 дБ 0:43 10-ATTO I, SC.VI. RECITATIVO "In questa forma dunque"DR11 0.00 дБ -21.04 дБ 1:32 11-ATTO I, SC.VII. NO.5 CORO "Giovinette che fate all'amore"DR13 -0.01 дБ -27.50 дБ 2:15 12-ATTO I, SC.VIII. RECITATIVO "Manco male и partita"DR10 -0.07 дБ -22.64 дБ 1:34 13-ATTO I, SC.VIII. NO.6 ARIA "Ho capito, signor sм"DR12 -2.98 дБ -28.75 дБ 1:50 14-ATTO I, SC.IX. RECITATIVO "Alfin siam liberati"DR11 -1.17 дБ -23.88 дБ 2:59 15-ATTO I, SC.IX. NO.7 DUETTINO "Lа ci darem la mano"DR12 -3.04 дБ -27.71 дБ 0:43 16-ATTO I, SC.X. RECITATIVO "Fermati scellerato"DR10 -0.84 дБ -21.40 дБ 1:10 17-ATTO I, SC.X. NO.8 ARIA "Ah fuggi il traditor"DR12 -1.62 дБ -27.83 дБ 1:07 18-ATTO I, SC.XI. RECITATIVO "Mi par ch'oggi il demonio si diverta"DR11 0.00 дБ -21.74 дБ 3:28 19-ATTO I, SC.XII. RECITATIVO "Ah ti ritrovo ancor" / NO.9 QUARTETTO "Non ti fidar, o misera"DR12 -6.07 дБ -31.14 дБ 0:25 20-ATTO I, SC.XII. RECITATIVO "Povera sventurata!"DR11 0.00 дБ -21.89 дБ 3:05 21-ATTO I, SC.XIII. NO.10 RECITATIVO ACCOMPAGNATO "Don Ottavio,son morta!"DR11 0.00 дБ -19.73 дБ 2:43 22-ATTO I, SC.XIII. ARIA "Or sai chi l'onore"DR11 -6.55 дБ -28.98 дБ 0:30 23-ATTO I, SC.XIV. RECITATIVO "Come mai creder deggio"DR10 -4.51 дБ -25.17 дБ 4:20 24-ATTO I, SC.XIV. NO.10A ARIA "Dalla sua pace"--------------------------------------------------------------------------------
Количество треков: 24Реальные значения DR: DR12
Частота: 2822400 Гц / Частота PCM: 88200 ГцКаналов: 6Разрядность: 24Битрейт: 16934 кбит/сКодек: DST64================================================================================
--------------------------------------------------------------------------------Анализ: RIAS Kammerchor, Freiburger Barockorchester, Dir. Renй Jacobs / MOZART: DON GIOVANNI - Disc 1--------------------------------------------------------------------------------
DR Пики RMS Продолжительность трека--------------------------------------------------------------------------------DR12 0.00 дБ -16.53 дБ 5:35 01-OuverturaDR14 -0.61 дБ -19.45 дБ 5:26 02-ATTO I, SC.I. NO.1 INTRODUZIONE "Notte e giorno faticar"DR13 -11.13 дБ -35.37 дБ 0:31 03-ATTO I, SC.II. RECITATIVO "Leporello, ove sei?"DR15 -0.29 дБ -22.09 дБ 2:52 04-ATTO I, SC.III. RECITATIVO "Ah del padre in periglio" / NO.2 RECITATIVO ACCOMP. "Ma qual mai s'offre, o Dei"DR14 0.00 дБ -18.46 дБ 3:54 05-ATTO I, SC.III. DUETTO "Fuggi, crudele, fuggi!"DR16 -4.11 дБ -26.89 дБ 1:51 06-ATTO I, SC.IV. RECITATIVO "Orsщ, spicciati presto"DR13 -1.83 дБ -19.64 дБ 3:43 07-ATTO I, SC.V. NO.3 ARIA "Ah chi mi dice mai"DR16 -4.32 дБ -25.11 дБ 3:04 08-ATTO I, SC.V. RECITATIVO "Chi и lа?"DR13 -3.82 дБ -21.10 дБ 5:16 09-ATTO I, SC. V. NO.4 ARIA "Madamina, il catalogo и questo"DR15 -4.76 дБ -26.70 дБ 0:43 10-ATTO I, SC.VI. RECITATIVO "In questa forma dunque"DR14 0.00 дБ -18.35 дБ 1:32 11-ATTO I, SC.VII. NO.5 CORO "Giovinette che fate all'amore"DR17 -3.58 дБ -26.33 дБ 2:15 12-ATTO I, SC.VIII. RECITATIVO "Manco male и partita"DR13 -2.77 дБ -20.06 дБ 1:34 13-ATTO I, SC.VIII. NO.6 ARIA "Ho capito, signor sм"DR15 -6.35 дБ -27.41 дБ 1:50 14-ATTO I, SC.IX. RECITATIVO "Alfin siam liberati"DR14 -3.03 дБ -20.96 дБ 2:59 15-ATTO I, SC.IX. NO.7 DUETTINO "Lа ci darem la mano"DR15 -5.34 дБ -25.93 дБ 0:43 16-ATTO I, SC.X. RECITATIVO "Fermati scellerato"DR12 -2.03 дБ -18.78 дБ 1:10 17-ATTO I, SC.X. NO.8 ARIA "Ah fuggi il traditor"DR14 -4.24 дБ -26.00 дБ 1:07 18-ATTO I, SC.XI. RECITATIVO "Mi par ch'oggi il demonio si diverta"DR14 -0.48 дБ -19.16 дБ 3:28 19-ATTO I, SC.XII. RECITATIVO "Ah ti ritrovo ancor" / NO.9 QUARTETTO "Non ti fidar, o misera"DR14 -9.03 дБ -29.62 дБ 0:25 20-ATTO I, SC.XII. RECITATIVO "Povera sventurata!"DR14 0.00 дБ -18.77 дБ 3:05 21-ATTO I, SC.XIII. NO.10 RECITATIVO ACCOMPAGNATO "Don Ottavio,son morta!"DR13 0.00 дБ -16.38 дБ 2:43 22-ATTO I, SC.XIII. ARIA "Or sai chi l'onore"DR14 -8.56 дБ -27.55 дБ 0:30 23-ATTO I, SC.XIV. RECITATIVO "Come mai creder deggio"DR13 -4.51 дБ -22.58 дБ 4:20 24-ATTO I, SC.XIV. NO.10A ARIA "Dalla sua pace"--------------------------------------------------------------------------------
Количество треков: 24Реальные значения DR: DR14
Частота: 2822400 Гц / Частота PCM: 88200 ГцКаналов: 2Разрядность: 24Битрейт: 5645 кбит/сКодек: DST64================================================================================
=============================================================foobar2000 1.3.13 / Замер динамического диапазона (DR) 1.1.1Дата отчёта: 2017-07-13 13:11:32
--------------------------------------------------------------------------------Анализ: RIAS Kammerchor, Freiburger Barockorchester, Dir. Renй Jacobs / MOZART: DON GIOVANNI - CD2--------------------------------------------------------------------------------
DR Пики RMS Продолжительность трека--------------------------------------------------------------------------------DR13 -1.49 дБ -28.79 дБ 1:53 01-ATTO I, SC.XV. RECITATIVO "Io deggio ad ogni patto"DR10 0.00 дБ -20.80 дБ 1:32 02-ATTO I, SC.XV. NO.11 ARIA "Fin ch'han dal vino"DR13 -2.08 дБ -28.60 дБ 1:20 03-ATTO I, SC.XVI. RECITATIVO "Masetto: senti un po'"DR10 -4.81 дБ -25.59 дБ 3:26 04-ATTO I, SC.XVI. NO.12 ARIA "Batti, batti, o bel Masetto"DR10 -1.73 дБ -26.18 дБ 0:36 05-ATTO I, SC.XVI. RECITATIVO "Guarda un po' come seppe"DR11 0.00 дБ -20.63 дБ 1:37 06-ATTO I, SC.XVI. NO.13 FINALE "Presto presto pria ch'ei venga" / SC.XVII. "Su svegliatevi, da bravi"DR11 -0.90 дБ -23.66 дБ 2:16 07-ATTO I, SC.XVIII. "Tra quest'arbori celata"DR11 -0.01 дБ -23.62 дБ 3:16 08-ATTO I, SC.XIX. "Bisogna aver coraggio"DR11 0.00 дБ -18.96 дБ 8:24 09-ATTO I, SC.XX. "Riposate, vezzose ragazze"DR11 0.00 дБ -21.72 дБ 1:02 10-ATTO II, SC.I. NO.14 DUETTO "Eh via buffone"DR13 -0.56 дБ -29.32 дБ 2:05 11-ATTO II, SC.I. RECITATIVO "Leporello." / "Signore."DR12 -0.43 дБ -24.55 дБ 4:13 12-ATTO II, SC.II. NO.15 TERZETTO "Ah taci, ingiusto core"DR13 -0.35 дБ -28.33 дБ 2:20 13-ATTO II, SC.II. RECITATIVO "Amico, che ti par?" / SC.III. RECITATIVO "Eccomi a voi!"DR11 -5.50 дБ -29.34 дБ 1:56 14-ATTO II, SC.III. NO.16 CANZONETTA "Deh vieni alla finestra"DR14 -1.58 дБ -28.73 дБ 1:16 15-ATTO II, SC.III. RECITATIVO "V'и gente alla finestra!" / SC. IV. RECITATIVO "Non ci stanchiamo"DR11 0.00 дБ -23.36 дБ 2:41 16-ATTO II, SC.IV. NO.17 ARIA "Metа di voi qua vadano"DR14 0.00 дБ -27.63 дБ 2:07 17-ATTO II, SC.V. RECITATIVO "Zitto! Lascia ch'io senta" / SC.VI. RECITATIVO "Ahi ahi! La testa mia!"DR10 -5.16 дБ -26.67 дБ 2:49 18-ATTO II, SC.VI. NO.18 ARIA "Vedrai, carino"DR11 -4.38 дБ -31.99 дБ 0:37 19-ATTO II, SC.VII. RECITATIVO "Di molte faci il lume"DR11 0.00 дБ -20.08 дБ 7:04 20-ATTO II, SC.VII. NO.19 SESTETTO "Sola sola in buio loco" / SC.VIII. "Ferma, briccone"--------------------------------------------------------------------------------
Количество треков: 20Реальные значения DR: DR12
Частота: 2822400 Гц / Частота PCM: 88200 ГцКаналов: 6Разрядность: 24Битрейт: 16934 кбит/сКодек: DST64================================================================================
--------------------------------------------------------------------------------Анализ: RIAS Kammerchor, Freiburger Barockorchester, Dir. Renй Jacobs / MOZART: DON GIOVANNI - CD2--------------------------------------------------------------------------------
DR Пики RMS Продолжительность трека--------------------------------------------------------------------------------DR16 -4.27 дБ -27.46 дБ 1:53 01-ATTO I, SC.XV. RECITATIVO "Io deggio ad ogni patto"DR12 -1.57 дБ -18.32 дБ 1:32 02-ATTO I, SC.XV. NO.11 ARIA "Fin ch'han dal vino"DR16 -4.12 дБ -26.94 дБ 1:20 03-ATTO I, SC.XVI. RECITATIVO "Masetto: senti un po'"DR12 -6.91 дБ -23.29 дБ 3:26 04-ATTO I, SC.XVI. NO.12 ARIA "Batti, batti, o bel Masetto"DR14 -5.48 дБ -24.80 дБ 0:36 05-ATTO I, SC.XVI. RECITATIVO "Guarda un po' come seppe"DR13 -1.28 дБ -18.31 дБ 1:37 06-ATTO I, SC.XVI. NO.13 FINALE "Presto presto pria ch'ei venga" / SC.XVII. "Su svegliatevi, da bravi"DR13 -2.22 дБ -20.82 дБ 2:16 07-ATTO I, SC.XVIII. "Tra quest'arbori celata"DR14 -0.36 дБ -21.03 дБ 3:16 08-ATTO I, SC.XIX. "Bisogna aver coraggio"DR12 0.00 дБ -16.32 дБ 8:24 09-ATTO I, SC.XX. "Riposate, vezzose ragazze"DR15 -0.41 дБ -18.99 дБ 1:02 10-ATTO II, SC.I. NO.14 DUETTO "Eh via buffone"DR16 -4.19 дБ -27.23 дБ 2:05 11-ATTO II, SC.I. RECITATIVO "Leporello." / "Signore."DR14 -2.32 дБ -21.70 дБ 4:13 12-ATTO II, SC.II. NO.15 TERZETTO "Ah taci, ingiusto core"DR16 -2.11 дБ -26.11 дБ 2:20 13-ATTO II, SC.II. RECITATIVO "Amico, che ti par?" / SC.III. RECITATIVO "Eccomi a voi!"DR14 -6.50 дБ -26.51 дБ 1:56 14-ATTO II, SC.III. NO.16 CANZONETTA "Deh vieni alla finestra"DR17 -3.09 дБ -26.47 дБ 1:16 15-ATTO II, SC.III. RECITATIVO "V'и gente alla finestra!" / SC. IV. RECITATIVO "Non ci stanchiamo"DR14 -1.53 дБ -20.93 дБ 2:41 16-ATTO II, SC.IV. NO.17 ARIA "Metа di voi qua vadano"DR17 -2.11 дБ -26.04 дБ 2:07 17-ATTO II, SC.V. RECITATIVO "Zitto! Lascia ch'io senta" / SC.VI. RECITATIVO "Ahi ahi! La testa mia!"DR12 -6.76 дБ -23.75 дБ 2:49 18-ATTO II, SC.VI. NO.18 ARIA "Vedrai, carino"DR14 -7.42 дБ -30.04 дБ 0:37 19-ATTO II, SC.VII. RECITATIVO "Di molte faci il lume"DR13 0.00 дБ -17.63 дБ 7:04 20-ATTO II, SC.VII. NO.19 SESTETTO "Sola sola in buio loco" / SC.VIII. "Ferma, briccone"--------------------------------------------------------------------------------
Количество треков: 20Реальные значения DR: DR14
Частота: 2822400 Гц / Частота PCM: 88200 ГцКаналов: 2Разрядность: 24Битрейт: 5645 кбит/сКодек: DST64================================================================================
foobar2000 1.3.13 / Замер динамического диапазона (DR) 1.1.1Дата отчёта: 2017-07-13 14:49:55
--------------------------------------------------------------------------------Анализ: RIAS Kammerchor, Freiburger Barockorchester, Dir. Renй Jacobs / MOZART: DON GIOVANNI - Disc 3--------------------------------------------------------------------------------
DR Пики RMS Продолжительность трека--------------------------------------------------------------------------------DR13 -1.19 дБ -27.87 дБ 2:01 01-ATTO II, SC.IX. RECITATIVO "Dunque quello sei tu" / "Ah pietа..." / SC.X RECITATIVO "Ferma, perfido, ferma..."DR13 -1.27 дБ -28.61 дБ 1:46 02-ATTO II, SC.XA. RECITATIVO "Restati qua!"DR11 -0.08 дБ -23.39 дБ 3:13 03-ATTO II, SC.XA. NO.21A DUETTO "Per queste tue manine"DR11 -0.85 дБ -28.35 дБ 1:16 04-ATTO II, SC.XB. RECITATIVO "Guarda un po' come stretto"DR13 -2.84 дБ -30.28 дБ 1:02 05-ATTO II, SC.XC. RECITATIVO "Andiam, andiam, signora"DR11 -4.54 дБ -27.76 дБ 2:43 06-ATTO II, SC.XD. NO.21B RECITATIVO ACCOMPAGNATO "In quali eccessi, o Numi"DR10 -2.04 дБ -23.19 дБ 3:51 07-ATTO II, SC.XD. ARIA "Mi tradм quell'alma ingrata"DR14 -0.30 дБ -28.64 дБ 4:17 08-ATTO II, SC.XI. RECITATIVO "Ah ah ah ah, questa и buona"DR12 -0.49 дБ -24.87 дБ 3:25 09-ATTO II, SC.XI. NO.22 DUETTO "O statua gentilissima"DR11 -4.84 дБ -30.35 дБ 1:00 10-ATTO II, SC.XII. RECITATIVO "Calmatevi, idol mio"DR10 -1.61 дБ -26.84 дБ 1:30 11-ATTO II, SC.XII. NO.23 RECITATIVO ACCOMPAGNATO "Crudele! Ah no, mio bene!"DR12 0.00 дБ -23.18 дБ 4:45 12-ATTO II, SC.XII. RONDO "Non mi dir, bell'idol mio"DR11 -8.78 дБ -31.33 дБ 0:20 13-ATTO II, SC.XII. RECITATIVO "Ah, si segua il suo passo"DR12 0.00 дБ -23.52 дБ 4:45 14-ATTO II, SC.XIII. NO.24 FINALE "Giа la mensa и preparata"DR12 0.00 дБ -20.05 дБ 3:49 15-ATTO II, SC.XIV. "L'ultima prova"DR12 0.00 дБ -16.95 дБ 5:15 16-ATTO II, SC.XV. "Don Giovanni, a cenar teco"DR15 0.00 дБ -19.83 дБ 5:42 17-ATTO II, SC.ULTIMA. "Ah dove и il perfido"DR13 -3.08 дБ -28.24 дБ 0:28 18-APPENDIX. RECITATIVO "Dunque quello sei tu"DR13 -2.11 дБ -24.37 дБ 1:43 19-APPENDIX. NO.20 ARIA "Ah pietа, signori miei"DR13 -3.32 дБ -28.16 дБ 0:39 20-APPENDIX. RECITATIVO "Ferma, perfido, ferma"DR12 -2.12 дБ -23.12 дБ 3:55 21-APPENDIX. NO.21 ARIA "Il mio tesoro intanto"--------------------------------------------------------------------------------
Количество треков: 21Реальные значения DR: DR12
Частота: 2822400 Гц / Частота PCM: 88200 ГцКаналов: 6Разрядность: 24Битрейт: 16934 кбит/сКодек: DST64================================================================================
--------------------------------------------------------------------------------Анализ: RIAS Kammerchor, Freiburger Barockorchester, Dir. Renй Jacobs / MOZART: DON GIOVANNI - Disc 3--------------------------------------------------------------------------------
DR Пики RMS Продолжительность трека--------------------------------------------------------------------------------DR16 -4.39 дБ -26.28 дБ 2:01 01-ATTO II, SC.IX. RECITATIVO "Dunque quello sei tu" / "Ah pietа..." / SC.X RECITATIVO "Ferma, perfido, ferma..."DR16 -5.18 дБ -27.04 дБ 1:46 02-ATTO II, SC.XA. RECITATIVO "Restati qua!"DR14 -1.71 дБ -20.71 дБ 3:13 03-ATTO II, SC.XA. NO.21A DUETTO "Per queste tue manine"DR14 -4.05 дБ -27.23 дБ 1:16 04-ATTO II, SC.XB. RECITATIVO "Guarda un po' come stretto"DR16 -6.04 дБ -28.68 дБ 1:02 05-ATTO II, SC.XC. RECITATIVO "Andiam, andiam, signora"DR13 -5.74 дБ -24.50 дБ 2:43 06-ATTO II, SC.XD. NO.21B RECITATIVO ACCOMPAGNATO "In quali eccessi, o Numi"DR13 -3.29 дБ -20.48 дБ 3:51 07-ATTO II, SC.XD. ARIA "Mi tradм quell'alma ingrata"DR18 -0.94 дБ -26.86 дБ 4:17 08-ATTO II, SC.XI. RECITATIVO "Ah ah ah ah, questa и buona"DR15 -1.97 дБ -21.86 дБ 3:25 09-ATTO II, SC.XI. NO.22 DUETTO "O statua gentilissima"DR13 -6.77 дБ -28.72 дБ 1:00 10-ATTO II, SC.XII. RECITATIVO "Calmatevi, idol mio"DR13 -2.97 дБ -23.57 дБ 1:30 11-ATTO II, SC.XII. NO.23 RECITATIVO ACCOMPAGNATO "Crudele! Ah no, mio bene!"DR14 0.00 дБ -20.11 дБ 4:45 12-ATTO II, SC.XII. RONDO "Non mi dir, bell'idol mio"DR14 -10.88 дБ -29.96 дБ 0:20 13-ATTO II, SC.XII. RECITATIVO "Ah, si segua il suo passo"DR16 0.00 дБ -21.43 дБ 4:45 14-ATTO II, SC.XIII. NO.24 FINALE "Giа la mensa и preparata"DR14 -0.01 дБ -17.22 дБ 3:49 15-ATTO II, SC.XIV. "L'ultima prova"DR10 0.00 дБ -14.52 дБ 5:15 16-ATTO II, SC.XV. "Don Giovanni, a cenar teco"DR12 0.00 дБ -17.01 дБ 5:42 17-ATTO II, SC.ULTIMA. "Ah dove и il perfido"DR14 -7.16 дБ -26.66 дБ 0:28 18-APPENDIX. RECITATIVO "Dunque quello sei tu"DR14 -3.49 дБ -21.66 дБ 1:43 19-APPENDIX. NO.20 ARIA "Ah pietа, signori miei"DR15 -5.42 дБ -26.92 дБ 0:39 20-APPENDIX. RECITATIVO "Ferma, perfido, ferma"DR12 -3.96 дБ -20.29 дБ 3:55 21-APPENDIX. NO.21 ARIA "Il mio tesoro intanto"--------------------------------------------------------------------------------
Количество треков: 21Реальные значения DR: DR14
Частота: 2822400 Гц / Частота PCM: 88200 ГцКаналов: 2Разрядность: 24Битрейт: 5645 кбит/сКодек: DST64================================================================================

Об альбоме (сборнике)

Excellent Mozart as usual with René Jacobs. Sound is excellent (recorded in PCM). Scans are not mine and not complete (booklet is huge: >300 pages), I put some scans coming the CD version – thanks to Arleg on rutracker for these.
SACD is out of print for years. Even the Blu-Ray (first HD opera ever recorded by Harmonia Mundi) is not available anymore.



Ви не можете починати теми
Ви не можете відповідати на повідомлення
Ви не можете редагувати свої повідомлення
Ви не можете видаляти свої повідомлення
Ви не можете голосувати в опитуваннях
Ви не можете прикріплювати файли до повідомлень
Ви можете скачувати файли