[SACD-R][OF] Carl Nielsen – The Organ Works (Bine Bryndorf) - 2017 (Classical/Organ)


Статистика роздачі [Оновити пиров]
Розмір:  4,39 GB   |    Зареєстрований:  1 рік   |    Скачано:  0 раз

Повного джерела не було: Ніколи

by Козак ®
09-Бер-2018 20:16


[SACD-R][OF] Carl Nielsen – The Organ Works (Bine Bryndorf) - 2017 (Classical/Organ)

Bine Bryndorf
Carl Nielsen – The Organ Works
- Формат записи/Источник записи: [SACD-R][OF]
Наличие водяных знаков: Нет
Год издания/переиздания диска: 2017
Жанр: Classical/Organ
Издатель (лейбл): Dacapo Records (eng)
Продолжительность: 01:18:13
Наличие сканов в содержимом раздачи: Буклет PDF-Контейнер: ISO (*.iso)
Тип рипа: image
Разрядность: 64(2,8 MHz/1 Bit)
Формат: DST64
Количество каналов: 5.1, 2.0-Доп. информация: Dacapo 6.220635 (2017)
SACD rip via BDP-170 to iso (4.7GB)
Iso was made with sacd-ripper for BDP-170 (which doesn’t produce the sacd_log.txt file, in case you’re wondering why there isn’t one).-

Треклист

1. Fest-præludium ved Aarhundredskiftet, CNW 84 (02:00)
29 Little Preludes for Organ, CNW 96:
2. I (01:46)
3. II (00:54)
4. III (01:07)
5. IV (01:02)
6. V (01:20)
7. Naar jeg betœnker Tid ig Stund, CNW 185 (03:00)
8. Et helligt Liv, en salig Død, CNW 164 (03:18)
29 Little Preludes for Organ, CNW 96:
9. VI (00:49)
10. VII (00:50)
11. VIII (00:44)
12. IX (01:36)
13. X (02:06)
14. XI (01:42)
15. XII (01:18)
16. XIII (01:29)
17. XIV (01:08)
18. Forunerligt at sige , NW 165 (03:33)
19. Frisk op! Endnu engang, CNW 168 (02:06)
29 Little Preludes for Organ, CNW 96:
20. XV (00:42)
21. XVI (00:49)
22. XVII (00:58)
23. XVIII (00:55)
24. XIX (00:57)
25. XX (00:51)
26. XXI (00:54)
27. XXII (00:44)
28. XXIII (01:14)
29. XXIV (01:00)
30. Ak, min Rose visner bort, CNW 153 (02:15)
31. Guds Engle i Flok, CNW 170 (01:35)
29 Little Preludes for Organ, CNW 96:
32. XXV (01:13)
33. XXVI (01:06)
34. XXVII (01:23)
35. XXVIII (01:40)
36. XXIX (01:10)
Two Preludes, CNW 98:
37. I (01:18)
38. II (01:13)
39. Melody, CNW 97 (01:01)
40. Commotio, CNW 99 (23:27)

Лог DR

foobar2000 1.3.13 / Замер динамического диапазона (DR) 1.1.1Дата отчёта:  2017-07-19 12:43:01
--------------------------------------------------------------------------------Анализ: Bine Bryndorf / Carl Nielsen - The Organ Works--------------------------------------------------------------------------------
DR Пики RMS Продолжительность трека--------------------------------------------------------------------------------DR10 -9.81 дБ -25.65 дБ 1:58 01-Festival Prelude for the New Century, CNW 84DR10 -16.99 дБ -38.45 дБ 1:47 02-29 Little Preludes for Organ, CNW 96 - IDR10 -15.90 дБ -43.16 дБ 0:54 03-IIDR10 -8.41 дБ -25.75 дБ 1:07 04-IIIDR10 -18.72 дБ -43.38 дБ 1:01 05-IVDR9 -12.23 дБ -29.11 дБ 1:18 06-VDR12 -15.77 дБ -34.22 дБ 3:01 07-Naar jeg betжnker Tid og Stund, CNW 185DR12 -13.69 дБ -33.63 дБ 3:14 08-Et helligt Liv, en salig Dшd, CNW 164DR8 -16.17 дБ -36.51 дБ 0:51 09-29 Little Preludes for Organ, CNW 96 - VIDR10 -17.05 дБ -42.00 дБ 0:50 10-VIIDR7 -18.82 дБ -34.98 дБ 0:44 11-VIIIDR10 -16.83 дБ -40.52 дБ 1:36 12-IXDR10 -12.76 дБ -31.65 дБ 2:05 13-XDR10 -18.96 дБ -40.14 дБ 1:41 14-XIDR10 -8.74 дБ -25.72 дБ 1:16 15-XIIDR9 -19.18 дБ -44.80 дБ 1:29 16-XIIIDR9 -15.60 дБ -36.39 дБ 1:04 17-XIVDR12 -10.22 дБ -32.71 дБ 3:34 18-Forunderligt at sige, CNW 165DR11 -13.69 дБ -33.19 дБ 2:02 19-Frisk op! Endnu engang, CNW 168DR8 -19.09 дБ -36.06 дБ 0:42 20-29 Little Preludes for Organ, CNW 96 - XVDR9 -21.02 дБ -47.77 дБ 0:49 21-XVIDR9 -18.32 дБ -38.39 дБ 0:58 22-XVIIDR8 -17.12 дБ -33.57 дБ 0:55 23-XVIIIDR10 -20.35 дБ -41.50 дБ 0:57 24-XIXDR9 -13.60 дБ -31.67 дБ 0:51 25-XXDR10 -16.00 дБ -41.19 дБ 0:54 26-XXIDR10 -17.69 дБ -41.10 дБ 0:44 27-XXIIDR10 -16.23 дБ -33.11 дБ 1:14 28-XXIIIDR10 -17.58 дБ -42.99 дБ 0:56 29-XXIVDR11 -14.58 дБ -34.84 дБ 2:16 30-Ak, min Rose visner bort, CNW 153DR12 -9.91 дБ -30.37 дБ 1:31 31-Guds Engle i Flok, CNW 170DR9 -16.43 дБ -36.75 дБ 1:16 32-29 Little Preludes for Organ, CNW 96 - XXVDR10 -18.38 дБ -37.44 дБ 1:06 33-XXVIDR9 -11.05 дБ -28.29 дБ 1:23 34-XXVIIDR10 -13.71 дБ -31.23 дБ 1:40 35-XXVIIIDR9 -22.33 дБ -37.61 дБ 1:04 36-XXIXDR10 -14.21 дБ -38.36 дБ 1:20 37-Two Preludes, CNW 98 - IDR10 -16.54 дБ -36.32 дБ 1:13 38-IIDR9 -18.67 дБ -39.46 дБ 0:54 39-Melody, CNW 97DR13 -6.97 дБ -28.80 дБ 23:26 40-Commotio, CNW 99--------------------------------------------------------------------------------
Количество треков: 40Реальные значения DR: DR10
Частота: 2822400 Гц / Частота PCM: 88200 ГцКаналов: 6Разрядность: 24Битрейт: 16934 кбит/сКодек: DST64================================================================================
--------------------------------------------------------------------------------Анализ: Bine Bryndorf / Carl Nielsen - The Organ Works--------------------------------------------------------------------------------
DR Пики RMS Продолжительность трека--------------------------------------------------------------------------------DR10 -9.82 дБ -22.12 дБ 1:58 01-Festival Prelude for the New Century, CNW 84DR10 -18.24 дБ -34.77 дБ 1:47 02-29 Little Preludes for Organ, CNW 96 - IDR10 -20.68 дБ -39.67 дБ 0:54 03-IIDR10 -8.42 дБ -22.20 дБ 1:07 04-IIIDR10 -27.14 дБ -39.98 дБ 1:01 05-IVDR9 -12.23 дБ -25.57 дБ 1:18 06-VDR12 -15.77 дБ -30.72 дБ 3:01 07-Naar jeg betжnker Tid og Stund, CNW 185DR12 -13.74 дБ -30.14 дБ 3:14 08-Et helligt Liv, en salig Dшd, CNW 164DR8 -20.36 дБ -33.08 дБ 0:51 09-29 Little Preludes for Organ, CNW 96 - VIDR10 -22.41 дБ -38.35 дБ 0:50 10-VIIDR8 -19.51 дБ -31.49 дБ 0:44 11-VIIIDR10 -25.29 дБ -36.90 дБ 1:36 12-IXDR10 -12.78 дБ -28.09 дБ 2:05 13-XDR9 -24.09 дБ -36.37 дБ 1:41 14-XIDR10 -8.75 дБ -22.22 дБ 1:16 15-XIIDR9 -25.68 дБ -41.75 дБ 1:29 16-XIIIDR9 -14.95 дБ -32.82 дБ 1:04 17-XIVDR13 -10.22 дБ -29.21 дБ 3:34 18-Forunderligt at sige, CNW 165DR12 -13.72 дБ -29.70 дБ 2:02 19-Frisk op! Endnu engang, CNW 168DR8 -14.36 дБ -32.38 дБ 0:42 20-29 Little Preludes for Organ, CNW 96 - XVDR9 -18.23 дБ -44.60 дБ 0:49 21-XVIDR9 -18.54 дБ -35.09 дБ 0:58 22-XVIIDR8 -18.56 дБ -29.99 дБ 0:55 23-XVIIIDR10 -21.65 дБ -37.85 дБ 0:57 24-XIXDR9 -14.78 дБ -27.94 дБ 0:51 25-XXDR10 -14.42 дБ -37.58 дБ 0:54 26-XXIDR9 -20.71 дБ -37.66 дБ 0:44 27-XXIIDR10 -16.22 дБ -29.44 дБ 1:14 28-XXIIIDR9 -18.36 дБ -39.45 дБ 0:56 29-XXIVDR12 -16.81 дБ -31.40 дБ 2:16 30-Ak, min Rose visner bort, CNW 153DR13 -9.94 дБ -26.87 дБ 1:31 31-Guds Engle i Flok, CNW 170DR9 -20.19 дБ -33.20 дБ 1:16 32-29 Little Preludes for Organ, CNW 96 - XXVDR10 -21.90 дБ -33.72 дБ 1:06 33-XXVIDR9 -11.10 дБ -24.81 дБ 1:23 34-XXVIIDR10 -13.70 дБ -27.64 дБ 1:40 35-XXVIIIDR8 -22.28 дБ -33.85 дБ 1:04 36-XXIXDR10 -20.87 дБ -34.86 дБ 1:20 37-Two Preludes, CNW 98 - IDR9 -20.46 дБ -32.79 дБ 1:13 38-IIDR9 -23.71 дБ -35.91 дБ 0:54 39-Melody, CNW 97DR13 -6.99 дБ -25.20 дБ 23:26 40-Commotio, CNW 99--------------------------------------------------------------------------------
Количество треков: 40Реальные значения DR: DR10
Частота: 2822400 Гц / Частота PCM: 88200 ГцКаналов: 2Разрядность: 24Битрейт: 5645 кбит/сКодек: DST64================================================================================
Источник (релизер): Phenicene (PS³SACD)
https://www.amazon.co.uk/Nielsen-Organ-Works-Bryndorf/dp/B01N2NY5ED
http://www.prestoclassical.co.uk/a/-/1271/Bine-Bryndorf/1
http://www.dacapo-records.dk/en/recordings/nielsen-the-organ-works

Об альбоме (сборнике)

Grammophone.co.uk:
This CD is considerably enriched by Bine Bryndorf’s detailed and informative booklet-notes. Another plus point is that she plays the fine three-manual, 44-stop organ in Copenhagen’s former St Nicholas church. Dating from 1930, this instrument is exactly contemporaneous with Nielsen’s organ works. It has lovely soft registers and a well-blended tutti – ideal for this repertoire.
The 29 Little Preludes and a few miscellaneous works are concise pieces, suitable for liturgical use. They are straightforward compositions, with Baroque-like fugal textures and chordal writing in the manner of Bach and Mendelssohn. Only the occasional unusual harmonies and sudden key changes place this music in the early 20th century. Bryndorf’s excellent performances have calm, unhurried tempos, and her imaginative use of the organ gives each of the 29 Preludes their own unique tone colour. The CD also includes the majestic Festival Prelude for the New Century and six of Nielsen’s Hymns and Spiritual Songs. These latter pieces have simple chorale melodies, which are beautifully sung by the baritone Torsten Nielsen.
In contrast, Commotio occupies a more complex musical landscape. Given that it was inspired by the playing of the virtuoso German organist Karl Straube – a noted interpreter of Max Reger – it’s no surprise to find florid contrapuntal writing and extremely varied dynamics. However, Nielsen’s adventurous harmonic language belongs firmly in the 20th century. One can detect an awareness of Schoenberg’s atonal style, alongside pre-echoes of Hindemith’s organ sonatas and Sorabji’s symphonies. Bryndorf’s controlled, measured tempos (possibly a touch too slow in places) and carefully chosen dynamics enable Nielsen’s visionary composition to be heard with exemplary clarity.



Ви не можете починати теми
Ви не можете відповідати на повідомлення
Ви не можете редагувати свої повідомлення
Ви не можете видаляти свої повідомлення
Ви не можете голосувати в опитуваннях
Ви не можете прикріплювати файли до повідомлень
Ви можете скачувати файли