[DSD][OF] Locatelli, Pietro Antonio - (L\'Arte del Violino) Locatelli Violin Concertos Nos. 1, 2, 4 (Lisa Jacobs, The String Soloists) - 2016 (Classical, Violin) - MultiChannel 5.0


Статистика роздачі [Оновити пиров]
Розмір:  44,17 GB   |    Зареєстрований:  1 рік   |    Скачано:  0 раз

Повного джерела не було: Ніколи

by Козак ®
09-Бер-2018 20:16


[DSD][OF] Locatelli, Pietro Antonio - (L\'Arte del Violino) Locatelli Violin Concertos Nos. 1, 2, 4 (Lisa Jacobs, The String Soloists) - 2016 (Classical, Violin) - MultiChannel 5.0

Locatelli, Pietro Antonio / (L'Arte del Violino) Locatelli Violin Concertos Nos. 1, 2, 4 (Lisa Jacobs, The String Soloists) - MultiChannel 5.0
Формат записи/Источник записи: [DSD][OF]
Наличие водяных знаков: Нет
Год издания/переиздания диска: 2016
Жанр: Classical, Violin
Издатель (лейбл): Cobra Records
Продолжительность: 01:03:58
Наличие сканов в содержимом раздачи: Буклет PDF
Треклист:
Violin Concerto No. 2 in C Minor, Op. 3, No. 2
01 - 1. Andante (10:15)
02 - 2. Largo (4:10)
03 - 3. Andante (8:08)
Violin Concerto No. 1 in D Major, Op. 3, No. 1
04 - 1. Allegro (6:40)
05 - 2. Largo (4:50)
06 - 3. Allegro (9:06)
Violin Concerto No. 4 in E Major, Op. 3, No. 4
07 - 1. Largo-Andante (8:08)
08 - 2. Largo (3:36)
09 - 3. Andante (9:05)
Контейнер: DSF (*.dsf)
Тип рипа: tracks
Разрядность: 64(2,8 MHz/1 Bit); 128(5,6 MHz/1 Bit); 256(11,2 MHz/1 Bit)
Формат: DSD
Количество каналов: 5.0

Лог проверки качества DSD64

foobar2000 1.3.15 / Dynamic Range Meter 1.1.1log date: 2017-07-20 11:41:01
--------------------------------------------------------------------------------Analyzed: Jacobs, Lisa, The String Soloists / 2016 L'Arte del Violino (Locatelli Violin Concertos) (DSD64 5.0)--------------------------------------------------------------------------------
DR Peak RMS Duration Track--------------------------------------------------------------------------------DR17 -6.55 dB -28.17 dB 10:15 01-1. Andante: Locatelli Violin Concerto No. 2 in C Minor, Op. 3, No. 2DR14 -10.05 dB -28.68 dB 4:10 02-2. Largo: Locatelli Violin Concerto No. 2 in C Minor, Op. 3, No. 2DR15 -9.97 dB -28.61 dB 8:08 03-3. Andante: Locatelli Violin Concerto No. 2 in C Minor, Op. 3, No. 2DR17 -6.72 dB -27.95 dB 6:40 04-1. Allegro: Locatelli Violin Concerto No. 1 in D Major, Op. 3, No. 1DR13 -12.07 dB -28.67 dB 4:50 05-2. Largo: Locatelli Violin Concerto No. 1 in D Major, Op. 3, No. 1DR16 -9.01 dB -28.72 dB 9:06 06-3. Allegro: Locatelli Violin Concerto No. 1 in D Major, Op. 3, No. 1DR14 -11.64 dB -28.82 dB 8:08 07-1. Largo-Andante: Locatelli Violin Concerto No. 4 in E Major, Op. 3, No. 4DR13 -12.07 dB -28.80 dB 3:36 08-2. Largo: Locatelli Violin Concerto No. 4 in E Major, Op. 3, No. 4DR14 -11.23 dB -28.84 dB 9:05 09-3. Andante: Locatelli Violin Concerto No. 4 in E Major, Op. 3, No. 4--------------------------------------------------------------------------------
Number of tracks: 9Official DR value: DR15
Samplerate: 2822400 Hz / PCM Samplerate: 176400 HzChannels: 5Bits per sample: 1Bitrate: 14112 kbpsCodec: DSD64================================================================================

Лог проверки качества DSD128

foobar2000 1.3.15 / Dynamic Range Meter 1.1.1log date: 2017-07-20 11:35:12
--------------------------------------------------------------------------------Analyzed: Jacobs, Lisa, The String Soloists / 2016 L'Arte del Violino (Locatelli Violin Concertos) (DSD128 5.0)--------------------------------------------------------------------------------
DR Peak RMS Duration Track--------------------------------------------------------------------------------DR17 -6.63 dB -29.04 dB 10:15 01-1. Andante: Locatelli Violin Concerto No. 2 in C Minor, Op. 3, No. 2DR14 -10.16 dB -29.71 dB 4:10 02-2. Largo: Locatelli Violin Concerto No. 2 in C Minor, Op. 3, No. 2DR15 -9.13 dB -29.74 dB 8:08 03-3. Andante: Locatelli Violin Concerto No. 2 in C Minor, Op. 3, No. 2DR17 -6.66 dB -28.78 dB 6:40 04-1. Allegro: Locatelli Violin Concerto No. 1 in D Major, Op. 3, No. 1DR13 -12.10 dB -29.74 dB 4:50 05-2. Largo: Locatelli Violin Concerto No. 1 in D Major, Op. 3, No. 1DR15 -7.17 dB -29.84 dB 9:06 06-3. Allegro: Locatelli Violin Concerto No. 1 in D Major, Op. 3, No. 1DR15 -11.59 dB -30.01 dB 8:08 07-1. Largo-Andante: Locatelli Violin Concerto No. 4 in E Major, Op. 3, No. 4DR13 -12.47 dB -29.90 dB 3:36 08-2. Largo: Locatelli Violin Concerto No. 4 in E Major, Op. 3, No. 4DR14 -11.05 dB -30.09 dB 9:05 09-3. Andante: Locatelli Violin Concerto No. 4 in E Major, Op. 3, No. 4--------------------------------------------------------------------------------
Number of tracks: 9Official DR value: DR15
Samplerate: 5644800 Hz / PCM Samplerate: 176400 HzChannels: 5Bits per sample: 1Bitrate: 28224 kbpsCodec: DSD128================================================================================

Лог проверки качества DSD256

foobar2000 1.3.15 / Dynamic Range Meter 1.1.1log date: 2017-07-20 11:28:23
--------------------------------------------------------------------------------Analyzed: Jacobs, Lisa, The String Soloists / 2016 L'Arte del Violino (Locatelli Violin Concertos) (DSD256 5.0)--------------------------------------------------------------------------------
DR Peak RMS Duration Track--------------------------------------------------------------------------------DR17 -6.61 dB -29.00 dB 10:15 01-1. Andante: Locatelli Violin Concerto No. 2 in C Minor, Op. 3, No. 2DR14 -10.15 dB -29.66 dB 4:10 02-2. Largo: Locatelli Violin Concerto No. 2 in C Minor, Op. 3, No. 2DR15 -9.12 dB -29.69 dB 8:08 03-3. Andante: Locatelli Violin Concerto No. 2 in C Minor, Op. 3, No. 2DR17 -6.66 dB -28.74 dB 6:40 04-1. Allegro: Locatelli Violin Concerto No. 1 in D Major, Op. 3, No. 1DR13 -12.07 dB -29.69 dB 4:50 05-2. Largo: Locatelli Violin Concerto No. 1 in D Major, Op. 3, No. 1DR15 -7.15 dB -29.79 dB 9:06 06-3. Allegro: Locatelli Violin Concerto No. 1 in D Major, Op. 3, No. 1DR14 -11.58 dB -29.95 dB 8:08 07-1. Largo-Andante: Locatelli Violin Concerto No. 4 in E Major, Op. 3, No. 4DR13 -12.46 dB -29.85 dB 3:36 08-2. Largo: Locatelli Violin Concerto No. 4 in E Major, Op. 3, No. 4DR14 -11.03 dB -30.03 dB 9:05 09-3. Andante: Locatelli Violin Concerto No. 4 in E Major, Op. 3, No. 4--------------------------------------------------------------------------------
Number of tracks: 9Official DR value: DR15
Samplerate: 11289600 Hz / PCM Samplerate: 176400 HzChannels: 5Bits per sample: 1Bitrate: 56448 kbpsCodec: DSD256================================================================================
Доп. информация: Artwork, PDF
Источник (релизер): Cobra Records (NativeDSD)
Оркестр: Lisa Jacobs, The String Soloists
Композитор: Locatelli, Pietro Antonio
Stereo Version: http://rutracker.org/forum/viewtopic.php?t=5430800
Stereo Binaural Version: http://rutracker.org/forum/viewtopic.php?t=5430808



Ви не можете починати теми
Ви не можете відповідати на повідомлення
Ви не можете редагувати свої повідомлення
Ви не можете видаляти свої повідомлення
Ви не можете голосувати в опитуваннях
Ви не можете прикріплювати файли до повідомлень
Ви можете скачувати файли