[SACD-R][OF] Anna Netrebko, Gianandrea Noseda & Vienna Philharmonic Orchestra - Opera Arias (Mozart, Berlioz, Donizetti, Massenet, Bellini, Gounod, Dvorak, Puccini) - 2003 (Classical/Opera)


Статистика роздачі [Оновити пиров]
Розмір:  4,03 GB   |    Зареєстрований:  1 рік   |    Скачано:  0 раз

Повного джерела не було: Ніколи

by Козак ®
09-Бер-2018 20:16


[SACD-R][OF] Anna Netrebko, Gianandrea Noseda & Vienna Philharmonic Orchestra - Opera Arias (Mozart, Berlioz, Donizetti, Massenet, Bellini, Gounod, Dvorak, Puccini) - 2003 (Classical/Opera)

Anna Netrebko
Gianandrea Noseda & Vienna Philharmonic Orchestra

Opera Arias (Mozart, Berlioz, Donizetti, Massenet, Bellini, Gounod, Dvorak, Puccini)
- Формат записи/Источник записи: [SACD-R][OF]
Наличие водяных знаков: Нет
Год издания/переиздания диска: 2003
Жанр: Classical/Opera/Vocal/Orchestral
Издатель (лейбл): Deutsche Grammophon
Продолжительность: 01:02:59
Наличие сканов в содержимом раздачи: Да (сканы)-Треклист:
01 Mozart: Idomeneo, re di Creta, K.366 / Act 1: "Quando avran fine omai" - "Padre, germani, addio!" (7:23)
02 Mozart: Don Giovanni, ossia Il dissoluto punito, K.527 / Act 2: "Crudele!-Ah no, mio bene!" - "Non m (6:37)
03 Berlioz: Benvenuto Cellini / Act 1: "Les belles fleures" - "Entre l'amour et le devoir" - Quand j'au (7:44)
04 Massenet: Manon / Act 3: "Suis-je gentille ainsi?" / "Obeissons, quand leur voix appelle" (6:35)
05 Donizetti: Lucia di Lammermoor / Act 1: Ancor non giunse!...Regnava nel silenzio (12:42)
06 Bellini: La Sonnambula / Act 1: Care compaggne, et voi, teneri amici ... Come per me sereno (7:44)
07 Gounod: Faust / Act 3: Chanson du roi de Thule - Air des Bijoux (6:28)
08 Dvorak: Rusalka, Op.114 / Act 1: Mesicku na nebi hlubokem (5:07)
09 Puccini: La Boheme - Concert Version / Act 1: "Quando me'n vo" (Musette's Waltz) (2:39)-Anna Netrebko
Wiener Philharmoniker
Gianandrea Noseda (conductor)-Контейнер: ISO (*.iso)
Тип рипа: image
Разрядность: 64(2,8 MHz/1 Bit)
Формат: DSD
Количество каналов: 5.0; 2.0-Доп. информация: Deutsche Grammophon, 474 640-2
Recording: Vienna, Musikverein, Grosser Saal, 3/2003
Produced by Christian Gansch
Associate Producer: Ewald Markl
Tonmeister (Balance Engineer): Rainer Maillard
Recording Engineer: Wolf-Dieter Karwatky
Editing: Dagmar Birwe
New surround mix: Rainer Maillard
Recorded, edited and mastered by Emil Berliner Studios
Project Management: Roland Ott
Iso was made with sacd-ripper version 0.36 for PS3, from the magical Mr_Wicked.-Recording type: PCM -- Раздача Stereo 2.0 24-88.2 PCM (FLAC) здесь
Источник (релизер): Faunts (PS³SACD)
http://sa-cd.net/showtitle/1249

Лог DR

foobar2000 1.3.13 / Замер динамического диапазона (DR) 1.1.1Дата отчёта:  2017-08-10 19:14:43
--------------------------------------------------------------------------------Анализ: Anna Netrebko, soprano; Wiener Staatsopernchor (Chorus Master: Ernst Dunshirn), Wiener Philharmoniker, Gianandrea Noseda / Opera Arias--------------------------------------------------------------------------------
DR Пики RMS Продолжительность трека--------------------------------------------------------------------------------DR15 -2.12 дБ -25.24 дБ 7:22 01-Idomeneo: Recitative and Aria "Quando avran fine omai ... Padre, germani, addio!" (Ilia)DR15 -0.70 дБ -23.90 дБ 6:37 02-Don Giovanni: Accompanied Recitative and Rondo "Crudele? - Ah no, mio bene! ... Non mi dir, bell'idol mio" (Donna Anna)DR15 -0.06 дБ -22.37 дБ 7:44 03-Benvenuto Cellini: Cavatina "Les belles fleurs! ... Quand j'aurai votre вge" (Teresa)DR14 -0.01 дБ -20.80 дБ 6:35 04-Manon: [Air du Cours-la-Reine] "Suis-je gentille ainsi? ... Je marche sur tous les chemins ... [Gavotte] Obйissons, quand leur voix appelle" (Manon)DR14 -0.04 дБ -21.76 дБ 12:42 05-Lucia di Lammermoor: Scene and Cavatina "Ancor non giunse! ... Regnava nel silenzio " (Lucia)DR14 0.00 дБ -21.89 дБ 7:44 06-La sonnambula: Recitative and Cavatina "Care compagne, e voi, teneri amici ... Come per me sereno" (Amina)DR15 -0.01 дБ -22.66 дБ 6:28 07-Faust: Recitative "Les grands seigneurs ont seuls des airs si rйsolus" - Air des Bijoux "Ah! je ris de me voir" (Marguerite)DR15 -0.04 дБ -25.64 дБ 5:07 08-Rusalka: Song to the Moon "O moon in the velvet heavens" (Rusalka)DR12 -0.61 дБ -22.48 дБ 2:39 09-La bohиme: [Musetta's Waltz] "Quando men vo" (Musetta)--------------------------------------------------------------------------------
Количество треков: 9Реальные значения DR: DR14
Частота: 2822400 Гц / Частота PCM: 88200 ГцКаналов: 5Разрядность: 24Битрейт: 14112 кбит/сКодек: DST64================================================================================
--------------------------------------------------------------------------------Анализ: Anna Netrebko, soprano; Wiener Staatsopernchor (Chorus Master: Ernst Dunshirn), Wiener Philharmoniker, Gianandrea Noseda / Opera Arias--------------------------------------------------------------------------------
DR Пики RMS Продолжительность трека--------------------------------------------------------------------------------DR15 0.00 дБ -19.56 дБ 7:22 01-Idomeneo: Recitative and Aria "Quando avran fine omai ... Padre, germani, addio!" (Ilia)DR13 0.00 дБ -18.57 дБ 6:37 02-Don Giovanni: Accompanied Recitative and Rondo "Crudele? - Ah no, mio bene! ... Non mi dir, bell'idol mio" (Donna Anna)DR12 0.00 дБ -17.13 дБ 7:44 03-Benvenuto Cellini: Cavatina "Les belles fleurs! ... Quand j'aurai votre вge" (Teresa)DR10 0.00 дБ -16.10 дБ 6:35 04-Manon: [Air du Cours-la-Reine] "Suis-je gentille ainsi? ... Je marche sur tous les chemins ... [Gavotte] Obйissons, quand leur voix appelle" (Manon)DR12 0.00 дБ -17.23 дБ 12:42 05-Lucia di Lammermoor: Scene and Cavatina "Ancor non giunse! ... Regnava nel silenzio " (Lucia)DR11 0.00 дБ -16.32 дБ 7:44 06-La sonnambula: Recitative and Cavatina "Care compagne, e voi, teneri amici ... Come per me sereno" (Amina)DR13 0.00 дБ -17.47 дБ 6:28 07-Faust: Recitative "Les grands seigneurs ont seuls des airs si rйsolus" - Air des Bijoux "Ah! je ris de me voir" (Marguerite)DR14 -0.42 дБ -20.67 дБ 5:07 08-Rusalka: Song to the Moon "O moon in the velvet heavens" (Rusalka)DR11 0.00 дБ -17.20 дБ 2:39 09-La bohиme: [Musetta's Waltz] "Quando men vo" (Musetta)--------------------------------------------------------------------------------
Количество треков: 9Реальные значения DR: DR12
Частота: 2822400 Гц / Частота PCM: 88200 ГцКаналов: 2Разрядность: 24Битрейт: 5645 кбит/сКодек: DST64================================================================================

Об альбоме (сборнике)

In her recital debut, our operatic Anna sings an impressive and difficult collection of arias from Mozart, Bellini, Donizetti, Gounod, Dvo?ák, Berlioz, Puccini, and Massenet and for the most part, comes off like a champion. Singing with controlled passion and verve, she does especially well in the Mozart and Dvorák. What an Ilia she would make on stage! As for her Donna Anna, it would be impossible to believe even a Lothario like Don Giovanni would forsake her. Anna Netrebko’s vocalism in the beautiful aria from Rusalka would melt hearts of stone. The slight edge in her creamy voice is just perfect for this music—less so, perhaps for the bright tones of Manon and Lucia. Though Netrebko is an accomplished coloratura, she is a little clumsy in the Lucia and Sonnambula arias. But as a born communicator, even her less-successful efforts still give pleasure. I have seen Anna Netrebko three times in the theater and can confirm that, if anything, she sounds better than on this disc, with a surprisingly large voice for such a slender figure. It is possible that better engineering might have removed the edge to her tone, which I did not hear in three theaters: The Academy of Music in Philadelphia, Royal Festival Hall in London, and the Metropolitan Opera House in New York. Anna Netrebko is indeed a singer worth traveling for.
— James Camner, FANFARE



Ви не можете починати теми
Ви не можете відповідати на повідомлення
Ви не можете редагувати свої повідомлення
Ви не можете видаляти свої повідомлення
Ви не можете голосувати в опитуваннях
Ви не можете прикріплювати файли до повідомлень
Ви можете скачувати файли