[SACD-R][OF] Anna Netrebko, Claudio Abbado & Mahler Chamber Orchestra - Sempre Libera (Verdi, Bellini, Donizetti, Puccini) - 2004 (Classical/Opera/Vocal/Orchestral)


Статистика роздачі [Оновити пиров]
Розмір:  3,99 GB   |    Зареєстрований:  1 рік   |    Скачано:  0 раз

Повного джерела не було: Ніколи

by Козак ®
09-Бер-2018 20:16


[SACD-R][OF] Anna Netrebko, Claudio Abbado & Mahler Chamber Orchestra - Sempre Libera (Verdi, Bellini, Donizetti, Puccini) - 2004 (Classical/Opera/Vocal/Orchestral)

Anna Netrebko, Claudio Abbado
& Mahler Chamber Orchestra

Sempre Libera (Verdi, Bellini, Donizetti, Puccini)
- Формат записи/Источник записи: [SACD-R][OF]
Наличие водяных знаков: Нет
Год издания/переиздания диска: 2004
Жанр: Classical/Opera/Vocal/Orchestral
Издатель (лейбл): Deutsche Grammophon
Продолжительность: 01:08:59
Наличие сканов в содержимом раздачи: Да (сканы)-Треклист:
Verdi: La traviata/ Act 1:
01 "E strano!" - "Ah, fors'e lui" (4:55)
02 Act 1: Sempre libera (3:39)
Bellini: La Sonnambula/ Act 2:
03 Ah! Se una volta sola (5:38)
04 Ah, non credea mirarti (4:47)
05 Ah! non giunge uman pensiero (2:41)
Bellini: I Puritani/ Act 2:
06 O rendetemi le speme...Qui la voce (4:36)
07 Ah! tu sorridi (4:02)
08 Vien, diletto, e in ciel la luna (2:57)
Donizetti: Lucia di Lammermoor / Act 2:
09 "O giusto cielo!" (Act 2) (3:18)
10 Oihme! Sorge il tremendo (3:15)
11 "Ardon gli incensi..." (Act 2) (5:01)
12 "Spargi d'amaro pianto" (Act 2) (3:37)
Verdi: Otello / Act 4:
13 Era piu calmo? (4:59)
14 "Piangea cantando nell'erma landa..." (7:04)
15 Ave Maria, piena di grazia (5:16)
16 Puccini: Gianni Schicchi: O mio babbino caro (2:51)-Anna Netrebko
Mahler Chamber Orchestra
Claudio Abbado (conductor)-Контейнер: ISO (*.iso)
Тип рипа: image
Разрядность: 64(2,8 MHz/1 Bit)
Формат: DSD
Количество каналов: 5.0; 2.0-Доп. информация: Deutsche Grammophon, 474 881-2
Recording type: PCM -- Раздача Stereo 2.0 24-88.2 PCM (FLAC) здесь
Источник (релизер): Faunts (PS³SACD)
http://sa-cd.net/showtitle/1918

Лог DR

foobar2000 1.3.13 / Замер динамического диапазона (DR) 1.1.1Дата отчёта:  2017-08-10 20:06:28
--------------------------------------------------------------------------------Анализ: Anna Netrebko / Sempre Libera--------------------------------------------------------------------------------
DR Пики RMS Продолжительность трека--------------------------------------------------------------------------------DR15 -3.75 дБ -29.37 дБ 4:55 01-И strano! - Ah, fors' и luiDR12 -3.01 дБ -25.23 дБ 3:40 02-Sempre liberaDR15 -10.09 дБ -35.37 дБ 5:38 03-Ah! Se una voltaDR16 -2.97 дБ -29.10 дБ 4:48 04-Ah! Non credeaDR12 -2.73 дБ -22.64 дБ 2:42 05-Ah! Non giungeDR13 -12.29 дБ -33.02 дБ 4:36 06-O rendetemi...Qui la voceDR13 -10.34 дБ -31.76 дБ 4:03 07-Ah! tu sorridiDR12 -3.00 дБ -25.26 дБ 2:56 08-Vien, dilettoDR15 -8.66 дБ -34.71 дБ 3:19 09-O giusto cielo!DR15 -5.15 дБ -29.94 дБ 3:15 10-Ohimи! Sorge il tremendoDR15 -3.18 дБ -28.86 дБ 5:01 11-Ardon gli incensiDR14 -3.01 дБ -25.22 дБ 3:37 12-Spargi d'amaro piantoDR14 -13.55 дБ -37.31 дБ 5:00 13-Era piщ calmo?DR18 -3.52 дБ -32.43 дБ 7:03 14-Piangea cantandoDR14 -12.25 дБ -37.02 дБ 5:37 15-Ave MariaDR12 -9.14 дБ -29.76 дБ 2:51 16-O mio babbino--------------------------------------------------------------------------------
Количество треков: 16Реальные значения DR: DR14
Частота: 2822400 Гц / Частота PCM: 88200 ГцКаналов: 6Разрядность: 24Битрейт: 16934 кбит/сКодек: DST64================================================================================
--------------------------------------------------------------------------------Анализ: Anna Netrebko / Sempre Libera--------------------------------------------------------------------------------
DR Пики RMS Продолжительность трека--------------------------------------------------------------------------------DR15 -3.57 дБ -24.40 дБ 4:55 01-И strano! - Ah, fors' и luiDR11 -3.25 дБ -20.39 дБ 3:40 02-Sempre liberaDR14 -9.33 дБ -30.22 дБ 5:38 03-Ah! Se una voltaDR16 -3.52 дБ -25.30 дБ 4:48 04-Ah! Non credeaDR11 -2.90 дБ -19.86 дБ 2:42 05-Ah! Non giungeDR12 -10.74 дБ -27.56 дБ 4:36 06-O rendetemi...Qui la voceDR12 -8.95 дБ -26.46 дБ 4:03 07-Ah! tu sorridiDR11 -3.49 дБ -20.53 дБ 2:56 08-Vien, dilettoDR16 -6.73 дБ -29.24 дБ 3:19 09-O giusto cielo!DR14 -3.27 дБ -24.85 дБ 3:15 10-Ohimи! Sorge il tremendoDR14 -3.77 дБ -24.72 дБ 5:01 11-Ardon gli incensiDR13 -3.40 дБ -21.56 дБ 3:37 12-Spargi d'amaro piantoDR13 -9.28 дБ -32.03 дБ 5:00 13-Era piщ calmo?DR17 -3.75 дБ -27.41 дБ 7:03 14-Piangea cantandoDR15 -8.36 дБ -31.35 дБ 5:37 15-Ave MariaDR12 -6.47 дБ -24.40 дБ 2:51 16-O mio babbino--------------------------------------------------------------------------------
Количество треков: 16Реальные значения DR: DR14
Частота: 2822400 Гц / Частота PCM: 88200 ГцКаналов: 2Разрядность: 24Битрейт: 5645 кбит/сКодек: DST64================================================================================

Об альбоме (сборнике)

Anna Netrebko’s second album for DG is even better than her first. Consummately conducted by no less than the leading Italian maestro in the world, Claudio Abbado, it is a fine achievement. A bel canto highlight of the album is surely the Lucia Mad Scene, glistening with perfectly nailed E?s and hauntingly accompanied by the eerie sound of a glass harmonica. The notes of the album emphasize how hard she has worked, and her progress in the Donizetti since I reviewed her first album is marked. Perhaps too, she has benefited from the superior accompaniment of Maestro Abbado. Particularly noteworthy is her limpid singing of the Sonnambula aria, capped by fiery bravura. Anna Netrebko sings bel canto music with unusual spirit and temperament, and her singing of the Sonnambula scena is much more animated than that of her senior colleague, Renée Fleming. Though La Fleming currently occupies the throne, it would not be surprising if she, and in fact all other prima donnas, are nervously looking over their shoulders at Miss Netrebko’s juggernaut.
Anna Netrebko is not a one-dimensional singer. That she is a wonderful Verdi soprano is demonstrated by her singing of two Traviata arias and most especially a flawlessly sung “Ave Maria.” “O mio babbino caro” finds her comfortably at home in verismo. What an ideal Lauretta she would make on stage! Natural sounding recording from DG; the booklet is full of lovely photographs.

— James Camner, FANFARE



Ви не можете починати теми
Ви не можете відповідати на повідомлення
Ви не можете редагувати свої повідомлення
Ви не можете видаляти свої повідомлення
Ви не можете голосувати в опитуваннях
Ви не можете прикріплювати файли до повідомлень
Ви можете скачувати файли