[SACD-R][OF] Richard Wagner – Parsifal (Rundfunkchor & Rundfunk-Sinfonieorchester Berlin, Marek Janowski) - 2012 (Classical/Opera)


Статистика роздачі [Оновити пиров]
Розмір:  11,37 GB   |    Зареєстрований:  1 рік   |    Скачано:  0 раз

Повного джерела не було: Ніколи

by Козак ®
09-Бер-2018 20:16


[SACD-R][OF] Richard Wagner – Parsifal (Rundfunkchor & Rundfunk-Sinfonieorchester Berlin, Marek Janowski) - 2012 (Classical/Opera)

Rundfunkchor & Rundfunk-Sinfonieorchester, Berlin
Marek Janowsk
Richard Wagner – Parsifal
- Формат записи/Источник записи: [SACD-R][OF]
Наличие водяных знаков: Нет
Год издания/переиздания диска: 2012
Жанр: Classical/Opera
Издатель (лейбл): PentaTone
Продолжительность: 03:46:20
Наличие сканов в содержимом раздачи: Да (сканы)-Контейнер: ISO (*.iso)
Тип рипа: image
Разрядность: 64(2,8 MHz/1 Bit)
Формат: DST64
Количество каналов: 5.0, 2.0-Доп. информация: Pentatone PTC 5186 401 (2012)
Live recording by Polyhymnia of the concert performance of 8th April 2011 in the Philharmonie Berlin.
Iso was made with sacd-ripper for PS3, from the magical Mr_Wicked.
Источник (релизер): ManWhoCan (PS³SACD)
http://sa-cd.net/showtitle/7757--Оркестр: Rundfunkchor Berlin
Rundfunk-Sinfonieorchester Berlin
Дирижер: Marek Janowski
Состав:
Christian Elsner (Parsifal)
Franz-Josef Selig (Gurnemanz)
Michelle DeYoung (Kundry & Stimme aus der Hohe)
Evgeny Nikitin (Amfortas)
Elke Wilm Schulte (Klingsor)
Dimitry Ivashchenko (Titurel)
Clemens Bieber, Tuomas Pursio (Gralsritter)
Michael Smallwood, Timothy Fallon (Knappen)
Julia Borchert, Martina Rüping (Ruping),
Lani Poulson, Sophia Klußmann (Klussmann),
Olivia Vermeulen, Ulrike Schneider (Blumenmadchen)-Треклист:

Disc 1

Act 1:
01 Vorspiel 11:37
02 He! Ho! Waldhüter ihr 4:53
03 Seht dort, die wilde Reiterin 3:00
04 Gawan! Herr! Gawan weilte nicht / Recht so! Habt Dank! Ein wenig Rast 6:28
05 He! Du da! Was liegst du dort wie ein wildes Tier? 5:47
06 O wunden-wundervoller heiliger Speer 3:21
07 Titurel, fromme Held 9:44
08 Weh! – Hoho! – Auf – Wer ist der Frevler 6:40
09 Nun sag’! Nichts weist du, was ich dich frage 6:40

Disc 2

01 Vom Bade kehrt der König heim 1:45
02 Verwandlungsmusik 2:40
03 Zum letzten Liebesmahle / Nun achte wohl und lass mich seh’n 6:25
04 Mein Sohn Amfortas, bist du am Amt? 3:07
05 Wehvolles Erbe, dem ich verfallen 6:35
06 Nehmet hin mein Blut / Enthüllet den Gral! 7:02
07 Wein und Brot des letzten Mahles 5:54
08 Was stehst du noch da? / Auszug der Ritter 5:09

Disc 3

Act 2:
01 Vorspiel / Die Zeit ist da 5:45
02 Ach! Ach! Tiefe Nacht! Wahnsinn! / Furchtbare Not! 7:11
03 Ho! Ihr Wächter! Ho! Ritter! 3:19
04 Hier war das Tosen! 3:43
05 Komm, holder Knabe! 4:51
06 Parsifal! Weile! 2:48
07 Dies alles hab’ ich nun geträumt? 3:15
08 Ich sah das Kind an seiner Mutter Brust 4:59
09 Wehe! Was tat ich? Wo war ich? / Bekenntnis wird Schuld in Reue enden 5:09
10 Amfortas! Die Wunde! 6:44
11 Grausamer! Fühlst du im Herzen / Ich sah ihn / Nun such’ ich ihn von Welt zu … 10:46
12 Vergeh, unseliges Weib! 3:35

Disc 4

Act 3:
01 Vorspiel 4:24
02 Von dorther kam das Stöhnen 7:59
03 Heil dir, mein Gast! 6:13
04 Heil mir, dass ich dich wiederfinde! 1:13
05 Zu ihm, des tiefe Klagen 2:03
06 O Herr! War es ein Fluch / Die heil’ge Speisung bleibt uns nun versagt 6:00
07 Nicht so! Die heil’ge Quelle selbst 4:02
08 Gesegnet sei, du Reiner, durch das Reine! 4:42
09 Wie dünkt mich doch die Aue heut so schön – Karfreitagszauber 2:34
10 Du siehst, das ist nicht so 6:03
11 Mittag. Die Stund’ ist da / Verwandlungsmusik 4:13
12 Geleiten wir im bergenden Schrein 3:31
13 Ja, Wehe! Weh’ über mich! 6:43
14 Nur eine Waffe taugt 4:24
15 Höchsten Heiles Wunder! – Erlösung dem Erlöser! 3:21
-

Об альбоме (сборнике)

When I reviewed the most recent release in Pentatone’s Berlin Wagner cycle, I said that they needed to up their game if these recordings were to attract attention in a crowded marketplace. Happily, with this release of Parsifal, they have done so.
This is the third installment of the cycle to be released, though the second to be recorded. As with Meistersinger, the first benefit that strikes the listener is the quality of the recorded sound. It’s crystal clear with strong extremities but inner transparency. It’s apparent right from the start of the prelude. The re-statements of the main theme sound bright and ever-so-slightly piercing on the winds. They are buoyed up by a shimmering halo of strings, while the brass statement of the faith theme brings about an outstandingly strong climax. This is repeated with wonderfully atmospheric scenes in the grail temple. Sound quality is important in this opera, and the Pentatone engineers have excelled themselves. This is matched by a vivid performance from the orchestra, who have played Wagner brilliantly throughout this cycle so far. Brass and winds lend kaleidoscopic colour in their contributions. The string playing is even more outstanding, especially in the world-weary prelude to Act 3; even more so, at the moment in the same act where Gurnemanz recognises the mysterious knight as Parsifal. The rich, almost chocolaty hue of the string tone at this moment is something which every orchestra aspires to but few achieve. The chorus play an outstanding role in the proceedings, singing with clarity and direction but always with a good degree of beauty. The engineers do a great job of capturing their dramatic part in the Act 1 temple scene, each layer of sound conveyed in its proper place with the right amount of distance between each component. The only place where this doesn’t quite work is the entry of the Flower Maidens, who are all over the shop in terms of the soundscape, often sounding confusing or poorly thought out. It’s not until Komm, holder Knabe that their sound settles down and when it does so they are appropriately bewitching.
It helps, too, that Janowski feels much more at home with this score than he did in Meistersinger or Holländer. He evinces a greater sense of the long view and he shapes the unfolding of the music with a more secure eye as to where it is going. The hasty tempi that marred his Meistersinger are here brought under control. The Prelude unfolds naturally from within itself, leading to an account of the first act that is unhurried but dramatically urgent. The Transformation interludes are paced and accented with an eye not only to structural progress but also to musical argument. The temple scenes, always tricky to pace, seem just right, judging the balance between stasis and movement as well as anyone else. His conducting of Klingsor’s music is quicksilver and slippery, as well it should be. This sets the seal on a very strong performance. Not everything is perfect: I want more of a sense of urgency in the orchestral plunge into Amfortas! Die Wunde! and Gurnemanz’s recognition of the spear (O Gnade!) is too fast but on the whole the overall sweep of the work is convincing. Janowski commands the confidence of both his orchestra and his singers and the results are very strong.
He is partnered by an excellent cast of singers. The Gurnemanz of Franz-Josef Selig is outstanding, anchoring the whole set with gravitas and weight. He sings not only with authority but with outstanding beauty, even more so than he did for Thielemann’s Vienna set. The narrations of Act 1 fly by in their dramatic excitement. Nikitin’s Amfortas is a little gravelly at first but this conveys the character’s agony very well. His interpretation grows in stature as the work progresses. His narrations in the grail temple do not have the poetry or nobility of, say, José van Dam (for Karajan and Barenboim), but they are enormously exciting to listen to and Nikitin is outstanding at evoking sympathy for the plight of the fallen king. Eike Wilm Schulte is wonderfully malevolent as the magician Klingsor but he never over-eggs it and his interpretation is thoroughly musical. Christian Elsner’s voice has a hard-edged, nasal quality that not everyone will love but it shouldn’t put any listener off as he becomes ever more compelling as the recording progresses. His assumption of the role of King is thrilling in the final act. Michelle de Young’s Kundry is outstanding because she gets inside both aspects of the role. In Act 1 her voice has a frenzied, almost manic quality to it which gives way to deflated submission before her exit. The great duet with Parsifal in Act 2 inspires her to find a much more seductive tone which stands her in great stead. The narration where she laughs in the face of Christ is thrillingly successful.
This disc is well worth picking up. It’s admirably performed with excellent sound, and the packaging is very effective too. As with the other installments in this series, the four discs are housed in a hardback booklet with full texts and translations and extensive – though somewhat esoteric – notes about the work. It won’t make anyone throw away their recordings from Knappertsbusch, Barenboim or Karajan (whose 1981 Berlin recording is still, for me, the best, despite its evident flaws) but it’s a worthy modern successor. It’s the finest release in this Janowski/Wagner series so far.
~Simon Thompson musicweb-international

Лог DR

foobar2000 1.3.13 / Замер динамического диапазона (DR) 1.1.1Дата отчёта:  2017-09-17 12:26:13
--------------------------------------------------------------------------------Анализ: Rundfunkchor Berlin, Rundfunk-Sinfonieorchester Berlin, Marek Janowski / Richard Wagner: Parsifal--------------------------------------------------------------------------------
DR Пики RMS Продолжительность трека--------------------------------------------------------------------------------DR15 -6.80 дБ -29.40 дБ 11:36 01-VorspielDR16 -14.54 дБ -38.95 дБ 4:53 02-He! Ho! Waldhьter ihrDR15 -5.19 дБ -31.58 дБ 3:00 03-Seht dort, die wilde ReiterinDR17 -9.37 дБ -35.65 дБ 6:28 04-Recht so! Habt Dank! Ein weinig Rast - Gawan! Herr! Gawan weilte nichtDR16 -9.63 дБ -34.34 дБ 5:47 05-He! Du da! Was liegst du dort wie ein wildes Tier?DR13 -7.35 дБ -29.34 дБ 3:21 06-O wunden-wundervoller heiliger SpeerDR18 -5.26 дБ -33.14 дБ 9:44 07-Titurel, der fromme HeldDR15 -6.96 дБ -31.03 дБ 6:40 08-Weh! - Hoho! - Auf - Wer ist der FrevlerDR17 -7.64 дБ -33.08 дБ 6:40 09-Nun sag'! Nichts weisst du, was ich dich frage--------------------------------------------------------------------------------
Количество треков: 9Реальные значения DR: DR16
Частота: 2822400 Гц / Частота PCM: 88200 ГцКаналов: 5Разрядность: 24Битрейт: 14112 кбит/сКодек: DST64================================================================================
--------------------------------------------------------------------------------Анализ: Rundfunkchor Berlin, Rundfunk-Sinfonieorchester Berlin, Marek Janowski / Richard Wagner: Parsifal--------------------------------------------------------------------------------
DR Пики RMS Продолжительность трека--------------------------------------------------------------------------------DR14 -6.26 дБ -28.32 дБ 11:36 01-VorspielDR16 -15.23 дБ -36.89 дБ 4:53 02-He! Ho! Waldhьter ihrDR15 -8.37 дБ -30.51 дБ 3:00 03-Seht dort, die wilde ReiterinDR16 -11.06 дБ -33.93 дБ 6:28 04-Recht so! Habt Dank! Ein weinig Rast - Gawan! Herr! Gawan weilte nichtDR15 -10.15 дБ -33.00 дБ 5:47 05-He! Du da! Was liegst du dort wie ein wildes Tier?DR13 -8.06 дБ -28.28 дБ 3:21 06-O wunden-wundervoller heiliger SpeerDR18 -6.45 дБ -31.84 дБ 9:44 07-Titurel, der fromme HeldDR15 -7.84 дБ -29.81 дБ 6:40 08-Weh! - Hoho! - Auf - Wer ist der FrevlerDR17 -9.29 дБ -31.94 дБ 6:40 09-Nun sag'! Nichts weisst du, was ich dich frage--------------------------------------------------------------------------------
Количество треков: 9Реальные значения DR: DR15
Частота: 2822400 Гц / Частота PCM: 88200 ГцКаналов: 2Разрядность: 24Битрейт: 5645 кбит/сКодек: DST64================================================================================
foobar2000 1.3.13 / Замер динамического диапазона (DR) 1.1.1Дата отчёта: 2017-09-17 12:44:19
--------------------------------------------------------------------------------Анализ: Rundfunkchor Berlin, Rundfunk-Sinfonieorchester Berlin, Marek Janowski / Richard Wagner: Parsifal--------------------------------------------------------------------------------
DR Пики RMS Продолжительность трека--------------------------------------------------------------------------------DR12 -9.63 дБ -34.84 дБ 1:45 01-Vom Bade kehrt der Kцnig heimDR11 -4.58 дБ -23.19 дБ 2:40 02-VerwandlungsmusikDR15 -2.98 дБ -26.22 дБ 6:25 03-Nun achte wohl und lass mich seh'n - Zum letzten LiebesmahleDR15 -9.42 дБ -33.70 дБ 3:07 04-Mein Sohn Amfortas, bist du am Amt?DR14 -7.78 дБ -29.99 дБ 6:35 05-Wehvolles Erbe, dem ich verfallenDR15 -9.56 дБ -32.90 дБ 7:02 06-Enthьllet den Gral! - Nehmet hin mein BlutDR13 -8.66 дБ -31.37 дБ 5:54 07-Wein und Brot des letzten MahlesDR14 -10.73 дБ -32.24 дБ 5:09 08-Auszug der Ritter - Was stehst du noch da?--------------------------------------------------------------------------------
Количество треков: 8Реальные значения DR: DR14
Частота: 2822400 Гц / Частота PCM: 88200 ГцКаналов: 5Разрядность: 24Битрейт: 14112 кбит/сКодек: DST64================================================================================
--------------------------------------------------------------------------------Анализ: Rundfunkchor Berlin, Rundfunk-Sinfonieorchester Berlin, Marek Janowski / Richard Wagner: Parsifal--------------------------------------------------------------------------------
DR Пики RMS Продолжительность трека--------------------------------------------------------------------------------DR14 -8.93 дБ -32.93 дБ 1:45 01-Vom Bade kehrt der Kцnig heimDR11 -7.34 дБ -22.83 дБ 2:40 02-VerwandlungsmusikDR13 -6.16 дБ -25.90 дБ 6:25 03-Nun achte wohl und lass mich seh'n - Zum letzten LiebesmahleDR14 -11.19 дБ -32.17 дБ 3:07 04-Mein Sohn Amfortas, bist du am Amt?DR13 -7.84 дБ -28.57 дБ 6:35 05-Wehvolles Erbe, dem ich verfallenDR14 -10.93 дБ -32.01 дБ 7:02 06-Enthьllet den Gral! - Nehmet hin mein BlutDR13 -10.10 дБ -30.25 дБ 5:54 07-Wein und Brot des letzten MahlesDR13 -10.85 дБ -31.12 дБ 5:09 08-Auszug der Ritter - Was stehst du noch da?--------------------------------------------------------------------------------
Количество треков: 8Реальные значения DR: DR13
Частота: 2822400 Гц / Частота PCM: 88200 ГцКаналов: 2Разрядность: 24Битрейт: 5645 кбит/сКодек: DST64================================================================================
foobar2000 1.3.13 / Замер динамического диапазона (DR) 1.1.1Дата отчёта: 2017-09-17 13:06:54
--------------------------------------------------------------------------------Анализ: Rundfunkchor Berlin, Rundfunk-Sinfonieorchester Berlin, Marek Janowski / Richard Wagner: Parsifal--------------------------------------------------------------------------------
DR Пики RMS Продолжительность трека--------------------------------------------------------------------------------DR13 -6.20 дБ -26.27 дБ 5:45 01-Vorspiel - Die Zeit ist daDR15 -6.01 дБ -29.29 дБ 7:11 02-Ach! Ach! Tiefe Nacht! Wahnsinn! - Furchtbare Not!DR13 -5.57 дБ -27.40 дБ 3:19 03-Ho! Ihr Wдchter! Ho! Ritter!DR14 -4.48 дБ -26.60 дБ 3:43 04-Hier war das Tosen!DR14 -6.32 дБ -28.00 дБ 4:51 05-Komm, holder Knabe!DR15 -7.07 дБ -30.53 дБ 2:48 06-Parsifal! Weile!DR15 -13.06 дБ -35.77 дБ 3:15 07-Dies alles hab' ich nun getrдumt?DR15 -6.71 дБ -30.72 дБ 4:59 08-Ich sah das Kind an seiner MutterDR14 -8.86 дБ -31.34 дБ 5:09 09-Wehe! Was tat ich? Wo war ich? - Bekenntnis wird Schuld in Reue endenDR14 -6.57 дБ -27.23 дБ 6:44 10-Amfortas! Die Wunde!DR14 -3.79 дБ -26.02 дБ 10:46 11-Grausamer! Fьhlst du im Herzen - Ich sah ihn - Nun such' ich ihn von Welt zu WeltDR13 -2.95 дБ -24.77 дБ 3:35 12-Vergeh, unseliges Weib!--------------------------------------------------------------------------------
Количество треков: 12Реальные значения DR: DR14
Частота: 2822400 Гц / Частота PCM: 88200 ГцКаналов: 5Разрядность: 24Битрейт: 14112 кбит/сКодек: DST64================================================================================
--------------------------------------------------------------------------------Анализ: Rundfunkchor Berlin, Rundfunk-Sinfonieorchester Berlin, Marek Janowski / Richard Wagner: Parsifal--------------------------------------------------------------------------------
DR Пики RMS Продолжительность трека--------------------------------------------------------------------------------DR13 -7.64 дБ -26.52 дБ 5:45 01-Vorspiel - Die Zeit ist daDR15 -8.00 дБ -28.68 дБ 7:11 02-Ach! Ach! Tiefe Nacht! Wahnsinn! - Furchtbare Not!DR13 -8.02 дБ -26.77 дБ 3:19 03-Ho! Ihr Wдchter! Ho! Ritter!DR15 -7.34 дБ -26.19 дБ 3:43 04-Hier war das Tosen!DR14 -8.24 дБ -27.43 дБ 4:51 05-Komm, holder Knabe!DR15 -8.50 дБ -29.83 дБ 2:48 06-Parsifal! Weile!DR15 -12.88 дБ -34.51 дБ 3:15 07-Dies alles hab' ich nun getrдumt?DR16 -7.94 дБ -30.09 дБ 4:59 08-Ich sah das Kind an seiner MutterDR14 -10.61 дБ -30.73 дБ 5:09 09-Wehe! Was tat ich? Wo war ich? - Bekenntnis wird Schuld in Reue endenDR12 -8.80 дБ -26.90 дБ 6:44 10-Amfortas! Die Wunde!DR13 -7.34 дБ -25.74 дБ 10:46 11-Grausamer! Fьhlst du im Herzen - Ich sah ihn - Nun such' ich ihn von Welt zu WeltDR13 -6.70 дБ -24.87 дБ 3:35 12-Vergeh, unseliges Weib!--------------------------------------------------------------------------------
Количество треков: 12Реальные значения DR: DR14
Частота: 2822400 Гц / Частота PCM: 88200 ГцКаналов: 2Разрядность: 24Битрейт: 5645 кбит/сКодек: DST64================================================================================
foobar2000 1.3.13 / Замер динамического диапазона (DR) 1.1.1Дата отчёта: 2017-09-17 13:33:11
--------------------------------------------------------------------------------Анализ: Rundfunkchor Berlin, Rundfunk-Sinfonieorchester Berlin, Marek Janowski / Richard Wagner: Parsifal--------------------------------------------------------------------------------
DR Пики RMS Продолжительность трека--------------------------------------------------------------------------------DR12 -6.38 дБ -25.90 дБ 4:24 01-VorspielDR19 -5.12 дБ -33.69 дБ 7:59 02-Von dorther kam das StцhnenDR14 -2.99 дБ -30.03 дБ 6:13 03-Heil dir, mein Gast!DR12 -15.93 дБ -35.62 дБ 1:13 04-Heil mir, dass ich dich wiederfinde!DR13 -6.43 дБ -26.68 дБ 2:03 05-Zu ihm, des tiefe KlagenDR16 -4.97 дБ -30.32 дБ 6:00 06-O Herr! War es ein Fluch - Die heil'ge Speisung bleibt uns nun versagtDR13 -11.99 дБ -34.98 дБ 4:02 07-Nicht so! Die heil'ge Quelle selbstDR16 -2.98 дБ -27.95 дБ 4:42 08-Gesegnet sei, du Reiner, durch das Reine!DR14 -8.45 дБ -31.00 дБ 2:34 09-Wie dьnkt mich doch die Aue heut so schцn - KarfreitagszauberDR14 -8.30 дБ -30.72 дБ 6:03 10-Du siehst, das ist nicht soDR12 -2.99 дБ -22.55 дБ 4:13 11-Mittag. Die Stund' ist da - VerwandlungsmusikDR12 -4.14 дБ -24.30 дБ 3:31 12-Geleiten wir im bergenden SchreinDR14 -2.98 дБ -26.92 дБ 6:43 13-Ja, Wehe! Weh' ьber mich!DR14 -7.00 дБ -27.62 дБ 4:24 14-Nur eine Waffe taugtDR14 -9.68 дБ -30.62 дБ 3:21 15-Hцchsten Heiles Wunder! - Erlцsung dem Erlцser!--------------------------------------------------------------------------------
Количество треков: 15Реальные значения DR: DR14
Частота: 2822400 Гц / Частота PCM: 88200 ГцКаналов: 5Разрядность: 24Битрейт: 14112 кбит/сКодек: DST64================================================================================
--------------------------------------------------------------------------------Анализ: Rundfunkchor Berlin, Rundfunk-Sinfonieorchester Berlin, Marek Janowski / Richard Wagner: Parsifal--------------------------------------------------------------------------------
DR Пики RMS Продолжительность трека--------------------------------------------------------------------------------DR11 -8.71 дБ -27.03 дБ 4:24 01-VorspielDR18 -7.85 дБ -34.14 дБ 7:59 02-Von dorther kam das StцhnenDR13 -7.36 дБ -30.77 дБ 6:13 03-Heil dir, mein Gast!DR13 -17.23 дБ -35.66 дБ 1:13 04-Heil mir, dass ich dich wiederfinde!DR13 -9.38 дБ -27.62 дБ 2:03 05-Zu ihm, des tiefe KlagenDR16 -8.43 дБ -30.89 дБ 6:00 06-O Herr! War es ein Fluch - Die heil'ge Speisung bleibt uns nun versagtDR13 -14.22 дБ -35.06 дБ 4:02 07-Nicht so! Die heil'ge Quelle selbstDR14 -8.57 дБ -29.15 дБ 4:42 08-Gesegnet sei, du Reiner, durch das Reine!DR14 -11.48 дБ -31.65 дБ 2:34 09-Wie dьnkt mich doch die Aue heut so schцn - KarfreitagszauberDR14 -10.17 дБ -31.25 дБ 6:03 10-Du siehst, das ist nicht soDR11 -7.54 дБ -24.04 дБ 4:13 11-Mittag. Die Stund' ist da - VerwandlungsmusikDR12 -9.19 дБ -25.77 дБ 3:31 12-Geleiten wir im bergenden SchreinDR14 -7.76 дБ -27.87 дБ 6:43 13-Ja, Wehe! Weh' ьber mich!DR13 -10.80 дБ -28.17 дБ 4:24 14-Nur eine Waffe taugtDR13 -12.10 дБ -31.36 дБ 3:21 15-Hцchsten Heiles Wunder! - Erlцsung dem Erlцser!--------------------------------------------------------------------------------
Количество треков: 15Реальные значения DR: DR13
Частота: 2822400 Гц / Частота PCM: 88200 ГцКаналов: 2Разрядность: 24Битрейт: 5645 кбит/сКодек: DST64================================================================================



Ви не можете починати теми
Ви не можете відповідати на повідомлення
Ви не можете редагувати свої повідомлення
Ви не можете видаляти свої повідомлення
Ви не можете голосувати в опитуваннях
Ви не можете прикріплювати файли до повідомлень
Ви можете скачувати файли