[SACD-R][OF] Wiener Philharmoniker, Lorin Maazel - New Year\'s Concert 2005 - 2005 (Classical/Orchestral)


Статистика роздачі [Оновити пиров]
Розмір:  7,9 GB   |    Зареєстрований:  1 рік   |    Скачано:  0 раз

Повного джерела не було: Ніколи

by Козак ®
09-Бер-2018 20:16


[SACD-R][OF] Wiener Philharmoniker, Lorin Maazel - New Year\'s Concert 2005 - 2005 (Classical/Orchestral)

Wiener Philharmoniker, Lorin Maazel / New Year's Concert 2005- Формат записи/Источник записи: [SACD-R][OF]
Наличие водяных знаков: Нет
Год издания/переиздания диска: 2005
Жанр: Classical/Orchestral
Издатель (лейбл): Deutsche Grammophon
Продолжительность: 00:53:22+00:53:46
Наличие сканов в содержимом раздачи: Только обложка альбома-Треклист:
CD2
01] Johann Strauss II: Indigo-Marsch, op. 349
02] Johann Strauss II: Haute-Volée-Polka, op. 155
03] Josef Strauss: Lustschwärmer, Walzer, op. 91
04] Josef Strauss: Winterlust, Polka schnell, op. 121
05] Josef Strauss: Die Emancipirte, Polka mazur, op. 282
06] Johann Strauss II: Tausend und eine Nacht, Walzer, op. 346
07] Johann Strauss II: Die Bajadere, Polka schnell, op.351
08] Franz Von Suppé: Die Schöne Galathée, Ouvertüre
09] Speech Dr. Clemens Hellsberg / Chairman of the Vienna Philharmonic
10] Johann Strauss II: Klipp-Klapp, Galopp, op.466
11] Johann Strauss II: Nordseebilder, Walzer, op.390

CD2
01] Johann Strauss II: Bauern-Polka, op. 276
02] Johann Strauss II: Fata Morgana, Polka mazur, op. 330
03] Johann Strauss II: Vergnügnugszug, Polka schnell, op. 281
04] Joseph Hellmesberger: Auf Wiener Art, Polka francaise
05] Johann Strauss II: Russische Marsch-Fantasie, op. 353
06] Johann Strauss II: Ein Herz, ein Sinn, Polka mazur, op. 323
07] Johann Strauss II, Josef Strauss: Pizzicato-Polka
08] Johann Strauss II: Geschichten aus dem Wienerwald, Walzer, op.325
09] E. Strauss: Electrisch, Polka schnell
10] Johann Strauss II: Auf der Jagd, Polka schnell, op. 373
11] New Yearґs Address
12] Johann Strauss II: An der schцnen blauen Donau, Walzer, op.314
-Контейнер: ISO (*.iso)
Тип рипа: image
Разрядность: 64(2,8 MHz/1 Bit)
Формат: DST64
Количество каналов: 5.1, 2.0-Доп. информация: 002894775495
Release Date April 21, 2005
Источник (релизер): PhantomBlot (PS³SACD)
http://www.sa-cd.net/showreviews/2740
http://www.cdjapan.co.jp/product/UCGG-7104

Лог DR

foobar2000 1.3.13 / Замер динамического диапазона (DR) 1.1.1Дата отчёта:  2017-12-10 17:06:17
--------------------------------------------------------------------------------Анализ: Wiener Philharmoniker / Conductor: Lorin Maazel / New Year's Concert 2005--------------------------------------------------------------------------------
DR Пики RMS Продолжительность трека--------------------------------------------------------------------------------DR14 -5.90 дБ -25.55 дБ 2:39 01-J. Strauss II: Indigo-Marsch, op. 349DR13 -7.95 дБ -28.00 дБ 2:59 02-J. Strauss II: Haute-Volйe-Polka, op. 155DR16 -5.82 дБ -28.23 дБ 8:28 03-Josef Strauss: Lustschwдrmer, Walzer, op. 91DR13 -5.91 дБ -25.84 дБ 2:43 04-Josef Strauss: Winterlust, Polka schnell, op. 121DR14 -6.60 дБ -27.39 дБ 4:27 05-Josef Strauss: Die Emancipirte, Polka mazur, op. 282DR16 -5.80 дБ -28.31 дБ 8:26 06-J. Strauss II: Tausend und eine Nacht, Walzer, op. 346DR15 -5.76 дБ -26.47 дБ 2:04 07-J. Strauss II: Die Bajadere, Polka schnell, op.351DR14 -5.93 дБ -26.65 дБ 7:22 08-Suppй: Die schцne Galathйe, OuvertьreDR16 -9.85 дБ -38.71 дБ 3:37 09-Speech Dr. Clemens Hellsberg / Chairman of the Vienna PhilharmonicDR14 -5.89 дБ -26.89 дБ 2:46 10-J. Strauss II: Klipp-Klapp, Galopp, op.466DR14 -5.91 дБ -27.65 дБ 7:50 11-J. Strauss II: Nordseebilder, Walzer, op.390--------------------------------------------------------------------------------
Количество треков: 11Реальные значения DR: DR15
Частота: 2822400 Гц / Частота PCM: 88200 ГцКаналов: 6Разрядность: 24Битрейт: 16934 кбит/сКодек: DST64================================================================================
--------------------------------------------------------------------------------Анализ: Wiener Philharmoniker / Conductor: Lorin Maazel / New Year's Concert 2005--------------------------------------------------------------------------------
DR Пики RMS Продолжительность трека--------------------------------------------------------------------------------DR12 -6.04 дБ -20.83 дБ 2:39 01-J. Strauss II: Indigo-Marsch, op. 349DR12 -6.77 дБ -23.42 дБ 2:59 02-J. Strauss II: Haute-Volйe-Polka, op. 155DR13 -6.04 дБ -23.29 дБ 8:28 03-Josef Strauss: Lustschwдrmer, Walzer, op. 91DR12 -6.01 дБ -21.13 дБ 2:43 04-Josef Strauss: Winterlust, Polka schnell, op. 121DR12 -6.09 дБ -22.37 дБ 4:27 05-Josef Strauss: Die Emancipirte, Polka mazur, op. 282DR13 -5.90 дБ -23.56 дБ 8:26 06-J. Strauss II: Tausend und eine Nacht, Walzer, op. 346DR13 -6.02 дБ -21.88 дБ 2:04 07-J. Strauss II: Die Bajadere, Polka schnell, op.351DR11 -5.87 дБ -22.26 дБ 7:22 08-Suppй: Die schцne Galathйe, OuvertьreDR17 -8.40 дБ -33.68 дБ 3:37 09-Speech Dr. Clemens Hellsberg / Chairman of the Vienna PhilharmonicDR13 -5.97 дБ -22.20 дБ 2:46 10-J. Strauss II: Klipp-Klapp, Galopp, op.466DR12 -6.05 дБ -22.94 дБ 7:50 11-J. Strauss II: Nordseebilder, Walzer, op.390--------------------------------------------------------------------------------
Количество треков: 11Реальные значения DR: DR13
Частота: 2822400 Гц / Частота PCM: 88200 ГцКаналов: 2Разрядность: 24Битрейт: 5645 кбит/сКодек: DST64================================================================================

Об альбоме (сборнике)

Lorin Maazel conducts the Vienna Philharmonic in its annual New Year’s Concert. A happy new year to all members of the blog!
Reviews by Mark E. Stenroos at Amazon
This concert is well worth owning. The rep is a well-considered mix of the tried and true and the off-the-beaten track. Maazel and the band shine throughout, especially in warhorses like “Tales from the Vienna Woods.” Strangely, Maazel’s solo violin contributions to this and other pieces sound less sharp in pitch here than they do on the DVD.
I know that everyone goes on and on and ON about Carlos Kleiber’s two appearances at these concerts. But to me, he just can’t compare to Maazel, who allows the music to breathe in a most-satisfying way. To tell the truth, while I found Kleiber’s appearances exciting as day-of TV broadcasts, repeat hearings of the CDs drawn from those concerts haven’t proved as enjoyable: the words “rushed” and “driven” seem apt to describe those two concerts. Rehearing Kleiber’s 1989 concert again this month failed to change my existing perceptions.
Maazel was a master of this event, and it’s kind of sad that after having the concert pretty much to himself in the early 80s, he had to get in line with the other world-renown maestri to conduct a few of the concerts in the 1990s. His final appearance at these concerts was a full decade ago, 9 years before his eventual passing. In Maazel’s absence, the world was subjected to Barenboim and Franz Welser-Möst doing their best to bore and irritate the crap out of us.
This 2-CD set stands as a marvelous tribute to the Maestro, the Orchestra and the occasion. Grab this CD before it too belongs to the ages.
Review by Daland January 19, 2005
Deutsche Gramophon has set a completely new standard for live recordings from the Musikvereinssaal in Vienna. I was never quite satisfied with recordings of the New Year's Concert regardless of the label. The sound was never as open, natural and spacious as I would have liked it to be. But this 2-SACD set captures the atmosphere of the concert hall in a magnificent way. The three-dimensional quality of the music is immediately evident, and the rear speakers come fully into their own (not just for the applause as on the Philips recording with Ozawa) without being too prominent. But most importantly, this recording just sounds wonderful. Just listen to the "Beautiful Galatea" overture with mellifluous strings, blooming woodwind and singing trumpets. By comparison, the two other New Year's Concerts available on SACD (Ozawa on Philips and especially Kleiber on Sony Japan) are not particularly impressive in sonic terms. If this SACD is based on a PCM recording, the result is simply astounding.
I hesitated to buy this set because I did not find the programme particularly appealing (it contains many rarities). But now it occupies a place of honour in my SACD collection. Maazel and the Vienna Philharmonic are on top form, with the conductor taking up the violin for two of the pieces (notably the Tales from the Vienna Woods). It should be noted that the Radetzky March was omitted this time because of the flood disaster in Asia (which does not make sense to me). I hope that DG will maintain this standard in future releases.

Review by pip440 April 15, 2005

Unlike Daland I was disappointed in the sound of this SACD. It was too recessed for my taste, especially as the rear channels are used to put you in the middle of the action, but this is a contradiction in terms with such recessed sound. Trebles should be livelier and the bass more prominent. This is not a patch on the 2002 Ozawa SACD (Philips) or the DVD-Audio (Teldec) of the Harnoncourt 2001 concert, both with livelier sound and a richer bass. The 2005 program of rarities was, however, a true delight.



Ви не можете починати теми
Ви не можете відповідати на повідомлення
Ви не можете редагувати свої повідомлення
Ви не можете видаляти свої повідомлення
Ви не можете голосувати в опитуваннях
Ви не можете прикріплювати файли до повідомлень
Ви можете скачувати файли