[SACD-R][OF] Brahms – Ein deutsches Requiem (A German Requiem), Op. 45 – Philippe Herreweghe – La Chapelle Royale Collegium Vocale - Orchestre des Champs-Elysees - 2004 (Classical)


Статистика роздачі [Оновити пиров]
Розмір:  3,18 GB   |    Зареєстрований:  1 рік   |    Скачано:  0 раз

Повного джерела не було: Ніколи

by Козак ®
09-Бер-2018 20:15


[SACD-R][OF] Brahms – Ein deutsches Requiem (A German Requiem), Op. 45 – Philippe Herreweghe – La Chapelle Royale Collegium Vocale - Orchestre des Champs-Elysees - 2004 (Classical)

Brahms – Ein deutsches Requiem (A German Requiem), Op. 45 – Philippe Herreweghe – La Chapelle Royale Collegium Vocale – Orchestre des Champs Elysees
Формат записи/Источник записи: [SACD-R][OF]
Жанр: Classical
Год издания: 2003
Издатель (лейбл): Harmonia Mundi
Номер по каталогу: HMG501608
Аудиокодек: DST64 2.0/5.0
Тип рипа: image (iso)
Битрейт аудио:1/2.8224 MHz
Продолжительность: 66:15
Источник (релизер):
http://sa-cd.net/showtitle/1417
Наличие сканов в содержимом раздачи: нет
Треклист:
1. Selig sind, die da Leid tragen
2. Denn alles Fleisch, es ist wie Gras
2. Herr, lehre doch mich
4. Wie lieblich sind deine Wohnungen, Herr
5. Ihr habt nur Traurigkeit
6. Denn wir haben hie keine bleibende Statt
7. Selig sind die Toten, die in dem Herren

Исполнители

Christiane Oelze (soprano)
Gerald Finley (baryton)
Orchestre des Champs-Elysées
La Chapelle Royale Collegium Vocal
Philippe Herreweghe (conductor)

DR Log

foobar2000 1.3.16 / Dynamic Range Meter 1.1.1log date: 2017-12-22 19:01:28
--------------------------------------------------------------------------------Analyzed: Christiane Oelze, soprano - Gerald Finley, baryton - La Chapelle Royale / Collegium Vocale - Orchestre Des Champs Elysées - Dir. Phillippe Herreweghe / JOHANNES BRAHMS: Ein deutsches Requiem op.45--------------------------------------------------------------------------------
DR Peak RMS Duration Track--------------------------------------------------------------------------------DR14 -7.46 dB -27.32 dB 10:10 01-Selig sind, die da Leid tragenDR14 -4.36 dB -25.67 dB 13:49 02-Selig sind, die da Leid tragenDR14 -6.05 dB -25.80 dB 9:24 03-Herr, lehre doch mich, daß ein Ende mit mir haben mußDR13 -8.44 dB -26.92 dB 4:58 04-Wie lieblich sind deine Wohnungen, Herr ZebaothDR12 -11.38 dB -27.57 dB 6:45 05-Ihr habt nur TraurigkeitDR14 -4.73 dB -24.41 dB 11:08 06-Denn wir haben hie keine bleibende StattDR14 -8.05 dB -27.26 dB 9:26 07-Selig sind die Toten, die in dem Herren sterben--------------------------------------------------------------------------------
Number of tracks: 7Official DR value: DR14
Samplerate: 2822400 Hz / PCM Samplerate: 88200 HzChannels: 5Bits per sample: 24Bitrate: 14112 kbpsCodec: DST64================================================================================
--------------------------------------------------------------------------------Analyzed: Christiane Oelze, soprano - Gerald Finley, baryton - La Chapelle Royale / Collegium Vocale - Orchestre Des Champs Elysées - Dir. Phillippe Herreweghe / JOHANNES BRAHMS: Ein deutsches Requiem op.45--------------------------------------------------------------------------------
DR Peak RMS Duration Track--------------------------------------------------------------------------------DR15 -7.46 dB -26.87 dB 10:09 01-Selig sind, die da Leid tragenDR16 -4.36 dB -24.71 dB 13:49 02-Selig sind, die da Leid tragenDR15 -6.05 dB -24.86 dB 9:24 03-Herr, lehre doch mich, daß ein Ende mit mir haben mußDR14 -8.44 dB -26.33 dB 4:58 04-Wie lieblich sind deine Wohnungen, Herr ZebaothDR13 -11.38 dB -27.24 dB 6:45 05-Ihr habt nur TraurigkeitDR14 -4.73 dB -23.16 dB 11:08 06-Denn wir haben hie keine bleibende StattDR15 -8.05 dB -26.80 dB 9:26 07-Selig sind die Toten, die in dem Herren sterben--------------------------------------------------------------------------------
Number of tracks: 7Official DR value: DR15
Samplerate: 2822400 Hz / PCM Samplerate: 88200 HzChannels: 2Bits per sample: 24Bitrate: 5645 kbpsCodec: DST64================================================================================



Ви не можете починати теми
Ви не можете відповідати на повідомлення
Ви не можете редагувати свої повідомлення
Ви не можете видаляти свої повідомлення
Ви не можете голосувати в опитуваннях
Ви не можете прикріплювати файли до повідомлень
Ви можете скачувати файли