[SACD-R][OF] Jean Sibelius — Complete Symphonies (Okko Kamu, Lahti Symphony Orchestra) 2015 (Classical/Orchestral)


Статистика роздачі [Оновити пиров]
Розмір:  10,82 GB   |    Зареєстрований:  1 рік   |    Скачано:  0 раз

Повного джерела не було: Ніколи

by Козак ®
09-Бер-2018 20:15


[SACD-R][OF] Jean Sibelius — Complete Symphonies (Okko Kamu, Lahti Symphony Orchestra) 2015 (Classical/Orchestral)

Okko Kamu, Lahti Symphony Orchestra
Jean Sibelius — Complete Symphonies
- Формат записи/Источник записи: [SACD-R][OF]
Наличие водяных знаков: Нет
Год издания/переиздания диска: 2015
Жанр: Classical/Orchestral
Издатель (лейбл): BIS Records
Продолжительность: 04:00:13
Наличие сканов в содержимом раздачи: Буклет PDF-Оркестр: Lahti Symphony Orchestra
Композитор: Jean Sibelius
Дирижер: Okko Kamu-Контейнер: ISO (*.iso)
Тип рипа: image
Разрядность: 64(2,8 MHz/1 Bit)
Формат: DST64
Количество каналов: 5.0, 2.0-Доп. информация: BIS-SACD-2076 (2015)
SACD rip via PS3 to iso (10.8 GB)
Источник (релизер): PS³SACD
https://www.amazon.com/Sibelius-Symphonies-Lahti-Symphony-Orchestra/dp/B012HPXPOI
https://www.ozon.ru/context/detail/id/136007309/?item=135735051-

Треклист

Disc 1
Symphony No. 1:
01] I. Andante, ma non troppo - Allegro energico
02] II. Andante (ma non troppo lento)
03] III. Scherzo. Allegro
04] IV. Finale (Quasi una Fantasia)
Symphony No. 4:
05] I. Tempo molto moderato, quasi adagio
06] II. Allegro molto vivace
07] III. Il tempo largo
08] IV. Allegro
Disc 2
Symphony No. 2:
01] I. Allegretto
02] II. Tempo Andante, ma rubato
03] III. Vivacissimo
04] IV. Finale. Allegro moderato
Symphony No. 5:
05] I. Tempo molto moderato - Allegro moderato
06] II. Andante mosso, quasi allegretto
07] III. Allegro molto - Largamente assai
Disc 3
Symphony No. 3:
01] I. Allegro moderato
02] II. Andantino con moto, quasi allegretto
03] III. Moderato - Allegro (ma non tanto)
Symphony No. 6:
04] I. Allegro molto moderato
05] II. Allegretto moderato
06] III. Poco vivace
07] IV. Allegro molto
08] Symphony No. 7

Лог DR

foobar2000 1.3.13 / Замер динамического диапазона (DR) 1.1.1Дата отчёта:  2017-12-26 02:07:03
--------------------------------------------------------------------------------Анализ: Lahti Symphony Orchestra - Okko Kamu / Jean Sibelius - The Symphonies, Disc 1--------------------------------------------------------------------------------
DR Пики RMS Продолжительность трека--------------------------------------------------------------------------------DR15 -7.05 дБ -31.84 дБ 10:46 01-Symphony No. 1: I. Andante, ma non troppo - Allegro energicoDR15 -10.15 дБ -33.76 дБ 9:22 02-II. Andante (ma non troppo lento)DR17 -7.89 дБ -34.97 дБ 5:35 03-III. Scherzo. AllegroDR15 -7.95 дБ -31.33 дБ 13:02 04-IV. Finale (Quasi una Fantasia)DR15 -11.88 дБ -35.84 дБ 11:25 05-Symphony No. 4: I. Tempo molto moderato, quasi adagioDR14 -14.39 дБ -37.15 дБ 4:57 06-II. Allegro molto vivaceDR17 -12.56 дБ -37.95 дБ 11:54 07-III. Il tempo largoDR16 -8.29 дБ -34.31 дБ 10:21 08-IV. Allegro--------------------------------------------------------------------------------
Количество треков: 8Реальные значения DR: DR15
Частота: 2822400 Гц / Частота PCM: 88200 ГцКаналов: 5Разрядность: 24Битрейт: 14112 кбит/сКодек: DST64================================================================================
--------------------------------------------------------------------------------Анализ: Lahti Symphony Orchestra - Okko Kamu / Jean Sibelius - The Symphonies, Disc 1--------------------------------------------------------------------------------
DR Пики RMS Продолжительность трека--------------------------------------------------------------------------------DR14 -6.28 дБ -27.76 дБ 10:46 01-Symphony No. 1: I. Andante, ma non troppo - Allegro energicoDR15 -7.58 дБ -29.69 дБ 9:22 02-II. Andante (ma non troppo lento)DR17 -6.96 дБ -31.05 дБ 5:35 03-III. Scherzo. AllegroDR15 -6.51 дБ -27.31 дБ 13:02 04-IV. Finale (Quasi una Fantasia)DR15 -10.57 дБ -32.31 дБ 11:25 05-Symphony No. 4: I. Tempo molto moderato, quasi adagioDR13 -12.33 дБ -33.60 дБ 4:57 06-II. Allegro molto vivaceDR17 -10.79 дБ -34.44 дБ 11:54 07-III. Il tempo largoDR16 -6.32 дБ -30.78 дБ 10:21 08-IV. Allegro--------------------------------------------------------------------------------
Количество треков: 8Реальные значения DR: DR15
Частота: 2822400 Гц / Частота PCM: 88200 ГцКаналов: 2Разрядность: 24Битрейт: 5645 кбит/сКодек: DST64================================================================================
foobar2000 1.3.13 / Замер динамического диапазона (DR) 1.1.1Дата отчёта: 2017-12-26 02:41:26
--------------------------------------------------------------------------------Анализ: Lahti Symphony Orchestra - Okko Kamu / Jean Sibelius - The Symphonies, Disc 2--------------------------------------------------------------------------------
DR Пики RMS Продолжительность трека--------------------------------------------------------------------------------DR16 -7.62 дБ -33.08 дБ 9:49 01-Symphony No. 2: I. AllegrettoDR16 -6.24 дБ -31.86 дБ 14:33 02-II. Tempo Andante, ma rubatoDR13 -10.37 дБ -32.77 дБ 6:13 03-III. VivacissimoDR14 -6.40 дБ -29.27 дБ 14:40 04-IV. Finale. Allegro moderatoDR17 -7.02 дБ -34.14 дБ 15:17 05-Symphony No. 5: I. Tempo molto moderato - Allegro moderatoDR19 -9.18 дБ -37.88 дБ 9:36 06-II. Andante mosso, quasi allegrettoDR16 -6.42 дБ -32.92 дБ 10:18 07-III. Allegro molto - Largamente assai--------------------------------------------------------------------------------
Количество треков: 7Реальные значения DR: DR16
Частота: 2822400 Гц / Частота PCM: 88200 ГцКаналов: 5Разрядность: 24Битрейт: 14112 кбит/сКодек: DST64================================================================================
--------------------------------------------------------------------------------Анализ: Lahti Symphony Orchestra - Okko Kamu / Jean Sibelius - The Symphonies, Disc 2--------------------------------------------------------------------------------
DR Пики RMS Продолжительность трека--------------------------------------------------------------------------------DR15 -7.67 дБ -30.43 дБ 9:49 01-Symphony No. 2: I. AllegrettoDR16 -6.75 дБ -29.23 дБ 14:33 02-II. Tempo Andante, ma rubatoDR13 -10.30 дБ -30.21 дБ 6:13 03-III. VivacissimoDR14 -6.47 дБ -26.66 дБ 14:40 04-IV. Finale. Allegro moderatoDR17 -6.91 дБ -31.47 дБ 15:17 05-Symphony No. 5: I. Tempo molto moderato - Allegro moderatoDR18 -10.17 дБ -35.23 дБ 9:36 06-II. Andante mosso, quasi allegrettoDR17 -6.56 дБ -30.33 дБ 10:18 07-III. Allegro molto - Largamente assai--------------------------------------------------------------------------------
Количество треков: 7Реальные значения DR: DR16
Частота: 2822400 Гц / Частота PCM: 88200 ГцКаналов: 2Разрядность: 24Битрейт: 5645 кбит/сКодек: DST64================================================================================
foobar2000 1.3.13 / Замер динамического диапазона (DR) 1.1.1Дата отчёта: 2017-12-26 03:18:27
--------------------------------------------------------------------------------Анализ: Lahti Symphony Orchestra - Okko Kamu / Jean Sibelius - The Symphonies, Disc 3--------------------------------------------------------------------------------
DR Пики RMS Продолжительность трека--------------------------------------------------------------------------------DR15 -8.06 дБ -32.07 дБ 10:19 01-Symphony No. 3: I. Allegro moderatoDR14 -16.97 дБ -40.09 дБ 10:15 02-II. Andantino con moto, quasi allegrettoDR15 -6.42 дБ -32.91 дБ 9:15 03-III. Moderato - Allegro (ma non tanto)DR15 -12.76 дБ -37.99 дБ 9:00 04-Symphony No. 6: I. Allegro molto moderatoDR16 -13.51 дБ -40.94 дБ 6:52 05-II. Allegretto moderatoDR17 -7.00 дБ -35.00 дБ 3:29 06-III. Poco vivaceDR16 -9.83 дБ -35.60 дБ 10:05 07-IV. Allegro moltoDR17 -7.61 дБ -33.22 дБ 23:12 08-Symphony No. 7--------------------------------------------------------------------------------
Количество треков: 8Реальные значения DR: DR16
Частота: 2822400 Гц / Частота PCM: 88200 ГцКаналов: 5Разрядность: 24Битрейт: 14112 кбит/сКодек: DST64================================================================================
--------------------------------------------------------------------------------Анализ: Lahti Symphony Orchestra - Okko Kamu / Jean Sibelius - The Symphonies, Disc 3--------------------------------------------------------------------------------
DR Пики RMS Продолжительность трека--------------------------------------------------------------------------------DR14 -6.93 дБ -28.96 дБ 10:19 01-Symphony No. 3: I. Allegro moderatoDR14 -16.68 дБ -36.90 дБ 10:15 02-II. Andantino con moto, quasi allegrettoDR15 -7.81 дБ -29.76 дБ 9:15 03-III. Moderato - Allegro (ma non tanto)DR16 -12.21 дБ -34.06 дБ 9:00 04-Symphony No. 6: I. Allegro molto moderatoDR15 -13.07 дБ -36.84 дБ 6:52 05-II. Allegretto moderatoDR17 -6.76 дБ -30.99 дБ 3:29 06-III. Poco vivaceDR16 -7.33 дБ -31.62 дБ 10:05 07-IV. Allegro moltoDR17 -6.28 дБ -30.93 дБ 23:12 08-Symphony No. 7--------------------------------------------------------------------------------
Количество треков: 8Реальные значения DR: DR15
Частота: 2822400 Гц / Частота PCM: 88200 ГцКаналов: 2Разрядность: 24Битрейт: 5645 кбит/сКодек: DST64================================================================================



Ви не можете починати теми
Ви не можете відповідати на повідомлення
Ви не можете редагувати свої повідомлення
Ви не можете видаляти свої повідомлення
Ви не можете голосувати в опитуваннях
Ви не можете прикріплювати файли до повідомлень
Ви можете скачувати файли