Концерт Ирины Федишин "Білі троянди" [2019, Pop, SATRip]


Статистика роздачі [Оновити пиров]
Розмір:  3,15 GB   |    Зареєстрований:  2 місяця 8 днів   |    Скачано:  0 раз

Повного джерела не було: Ніколи


Концерт Ирины Федишин "Білі троянди" [2019, Pop, SATRip]

Концерт Ирины Федишин "Білі троянди"
Страна: Украина
Жанр: Pop
Продолжительность: 01:32:56
Год выпуска: 2019Описание: Телеверсия грандиозного сольного концерта Ирины Федишин "Белые розы". За 2018 год певица дала более 160 сольных концертов по разным городам Украины в рамках тура "Білі троянди". Самый масштабный концерт состоялся во Дворце Украина в Киеве.

Треклист

1. Бiлi троянди
2. Твоя
3. Серця стук
4. Як я тебе люблю
5. Чужi уста
6. Цвiте терен
7. При долинi кущ калини
8. Плакуча гiтара
9. Україна
10. Галя
11. Битьки мої
12. Гiтара
13. Долоньки
14. Просто танцюй
15. Там де ти
16. Ти тiльки мiй
17. Душа
18. Мальдiви
19. Твiй Ангел
20. Роман
21. Зiронька
22. Цвiте калина
23. Лише у нас
Сэмпл: https://www.sendspace.com/file/b6wmul
Источник: собственная запись
Качество: SATRip
Контейнер: TS/M2TS
Видео кодек: MPEG2
Аудио кодек: MP2
Видео: MPEG2 Video 720x576 (16:9) 4 348 kb/s 25fps
Аудио: MPEG Audio 256kbps 48000Hz stereo

MediaInfo

GeneralID                          : 1 (0x1)Complete name               : F:\Мои раздачи\Музыка\Концерт Ірини Федишин Білі троянди.tsFormat                      : MPEG-TSFile size                   : 3.15 GiBDuration                    : 1 h 32 minOverall bit rate mode       : VariableOverall bit rate            : 4 846 kb/s
VideoID : 6101 (0x17D5)Menu ID : 1 (0x1)Format : MPEG VideoFormat version : Version 2Format profile : [email protected] settings : CustomMatrix / BVOPFormat settings, BVOP : YesFormat settings, Matrix : CustomFormat settings, GOP : M=4, N=32Format settings, picture st : FrameCodec ID : 2Duration : 1 h 32 minBit rate mode : VariableBit rate : 4 348 kb/sMaximum bit rate : 15.0 Mb/sWidth : 720 pixelsHeight : 576 pixelsDisplay aspect ratio : 16:9Active Format Description : Full frame 16:9 imageFrame rate : 25.000 FPSStandard : PALColor space : YUVChroma subsampling : 4:2:0Bit depth : 8 bitsScan type : InterlacedScan order : Top Field FirstCompression mode : LossyBits/(Pixel*Frame) : 0.419Time code of first frame : 00:00:00:00Time code source : Group of pictures headerGOP, Open/Closed : OpenGOP, Open/Closed of first f : ClosedStream size : 2.82 GiB (90%)
AudioID : 6102 (0x17D6)Menu ID : 1 (0x1)Format : MPEG AudioFormat version : Version 1Format profile : Layer 2Codec ID : 3Duration : 1 h 32 minBit rate mode : ConstantBit rate : 256 kb/sChannel(s) : 2 channelsSampling rate : 48.0 kHzFrame rate : 41.667 FPS (1152 SPF)Compression mode : LossyDelay relative to video : 14 msStream size : 170 MiB (5%)Language : Ukrainian

Скриншоты




Ви не можете починати теми
Ви не можете відповідати на повідомлення
Ви не можете редагувати свої повідомлення
Ви не можете видаляти свої повідомлення
Ви не можете голосувати в опитуваннях
Ви не можете прикріплювати файли до повідомлень
Ви можете скачувати файли