(Rap, Hip-Hop) Guf - Дискография (6 релизов) (2007-2015), ALAC (tracks+.cue), lossless


Статистика роздачі [Оновити пиров]
Розмір:  2,38 GB   |    Зареєстрований:  2 місяця 8 днів   |    Скачано:  0 раз

Повного джерела не було: Ніколи


(Rap, Hip-Hop) Guf - Дискография (6 релизов) (2007-2015), ALAC (tracks+.cue), lossless

Guf - Коллекция- -Жанр: Rap, Hip-Hop
Носитель: CD
Страна-производитель диска: Россия
Страна: Россия (г. Москва)
Аудиокодек: ALAC
Битрейт аудио: lossless
Вшитые тексты: вшиты частично
Программа-риповщик: EAC (диск)
Общая продолжительность: 06:04:08
Источник (релизер): Собственные диски
Наличие сканов в содержимом раздачи: да-Albums-

(2007) Город Дорог

Издатель (лейбл): ООО "Монолит-Рекордс"
Номер по каталогу: Monolit №166741 LS 0963
Продолжительность: 00:55:42
- -Треклист:-01. Интро (00:44)
02. Кто Как Играет (03:19)
Музыка: Slim
03. Сплетни (03:13)
Музыка: Slim
04. Свадьба (Feat. Slim) (04:15)
Музыка: Slim
05. Хлоп-Хлоп (Feat. Птаха) (02:43)
Музыка: Тёмный
06. Ямакаси (03:39)
Музыка: Slim
07. Есть Вопросы (Feat. Slim) (04:22)
Музыка: Slim
08. Трамвайные Пути (02:18)
Музыка: Slim
09. Скит От Принципа (01:19)
10. Новогодняя (03:41)
Музыка: Шым
11. Ориджинал Ба (Feat. Ба) (04:01)
Музыка: Slim
12. Вождь (04:14)
Музыка: Slim
13. Скит От Санька (00:29)
14. Тринити (Remix) (Feat. Бледный (Иезекииль 25:17), Ант (Отрицательное Влияние)) (05:17)
Музыка: Slim
15. Мутные Замуты (Feat. Slim, Птаха) (04:03)
Музыка: Slim
16. Новости (04:16)
Музыка: Slim
17. Трамвайные Пути (Полная Версия) (Feat. 5 Плюх) (03:40)
Музыка: Slim
18. Аутро (00:09)-

Лог создания рипа

Exact Audio Copy V1.0 beta 3 from 29. August 2011
Отчёт EAC об извлечении, выполненном 15. апреля 2015, 2:55
Guf / Город Дорог
Дисковод: TSSTcorpCDDVDW SH-224BB Adapter: 0 ID: 0
Режим чтения : ДостоверностьИспользование точного потока : ДаОтключение кэша аудио : ДаИспользование указателей C2 : Нет
Коррекция смещения при чтении : 6Способность читать области Lead-in и Lead-out : НетЗаполнение пропущенных сэмплов тишиной : ДаУдаление блоков с тишиной в начале и конце : НетПри вычислениях CRC использовались нулевые сэмплы : ДаИнтерфейс : Встроенный Win32-интерфейс для Win NT/2000Обработка зазоров : Добавлено к предыдущему треку
Выходной формат : Пользовательский кодировщикВыбранный битрейт : 896 kBit/sКачество : ВысокийДобавление ID3-тега : НетУтилита сжатия : C:\Program Files\Foobar2000 zPack\encoders\refalac64.exeДополнительные параметры : -s --ignorelength --artist "%artist%" --title "%title%" --album "%albumtitle%" --date "%year%" --track "%tracknr%" --genre "%genre%" -o %dest% %source%
TOC извлечённого CD
Трек | Старт | Длительность | Начальный сектор | Конечный сектор --------------------------------------------------------------------- 1 | 0:00.00 | 0:43.69 | 0 | 3293 2 | 0:43.69 | 3:18.60 | 3294 | 18203 3 | 4:02.54 | 3:12.42 | 18204 | 32645 4 | 7:15.21 | 4:14.49 | 32646 | 51744 5 | 11:29.70 | 2:43.23 | 51745 | 63992 6 | 14:13.18 | 3:38.59 | 63993 | 80401 7 | 17:52.02 | 4:21.56 | 80402 | 100032 8 | 22:13.58 | 2:17.70 | 100033 | 110377 9 | 24:31.53 | 1:18.53 | 110378 | 116280 10 | 25:50.31 | 3:40.51 | 116281 | 132831 11 | 29:31.07 | 4:01.34 | 132832 | 150940 12 | 33:32.41 | 4:14.23 | 150941 | 170013 13 | 37:46.64 | 0:28.50 | 170014 | 172163 14 | 38:15.39 | 5:17.28 | 172164 | 195966 15 | 43:32.67 | 4:03.29 | 195967 | 214220 16 | 47:36.21 | 4:16.13 | 214221 | 233433 17 | 51:52.34 | 3:39.56 | 233434 | 249914 18 | 55:32.15 | 0:09.24 | 249915 | 250613 19 | 58:13.39 | 3:18.01 | 262014 | 276864
Трек 1
Имя файла H:\Музон (Loseless)\Мои Рипы\Guf - Дискография (ALAC)\(2007) Город Дорог\01 Интро.wav
Длина предзазора 0:00:02.00
Пиковый уровень 98.8 % Скорость извлечения 1.0 X Качество трека 100.0 % CRC теста FF5B592F CRC копии FF5B592F Точное извлечение (достоверность 2) [82A257AA] (AR v1) Копирование... OK
Трек 2
Имя файла H:\Музон (Loseless)\Мои Рипы\Guf - Дискография (ALAC)\(2007) Город Дорог\02 Кто Как Играет.wav
Пиковый уровень 98.8 % Скорость извлечения 1.7 X Качество трека 100.0 % CRC теста 9398AA5F CRC копии 9398AA5F Точность не определена (достоверность 4) [55F13FAA], AccurateRip вернул [F83E758D] (AR v2) Копирование... OK
Трек 3
Имя файла H:\Музон (Loseless)\Мои Рипы\Guf - Дискография (ALAC)\(2007) Город Дорог\03 Сплетни.wav
Пиковый уровень 98.8 % Скорость извлечения 1.6 X Качество трека 99.9 % CRC теста 93C5B80C CRC копии 93C5B80C Точное извлечение (достоверность 2) [51274EAB] (AR v1) Копирование... OK
Трек 4
Имя файла H:\Музон (Loseless)\Мои Рипы\Guf - Дискография (ALAC)\(2007) Город Дорог\04 Свадьба (Feat. Slim).wav
Пиковый уровень 98.8 % Скорость извлечения 1.8 X Качество трека 99.9 % CRC теста 499A8BE9 CRC копии 499A8BE9 Точное извлечение (достоверность 2) [AC2CECDC] (AR v1) Копирование... OK
Трек 5
Имя файла H:\Музон (Loseless)\Мои Рипы\Guf - Дискография (ALAC)\(2007) Город Дорог\05 Хлоп Хлоп (Feat. Птаха).wav
Пиковый уровень 98.8 % Скорость извлечения 1.7 X Качество трека 99.9 % CRC теста 412065F8 CRC копии 412065F8 Точное извлечение (достоверность 2) [5EF98B5D] (AR v1) Копирование... OK
Трек 6
Имя файла H:\Музон (Loseless)\Мои Рипы\Guf - Дискография (ALAC)\(2007) Город Дорог\06 Ямакаси.wav
Пиковый уровень 98.8 % Скорость извлечения 2.0 X Качество трека 99.9 % CRC теста 54703CCC CRC копии 54703CCC Точное извлечение (достоверность 2) [2EB5CDEC] (AR v1) Копирование... OK
Трек 7
Имя файла H:\Музон (Loseless)\Мои Рипы\Guf - Дискография (ALAC)\(2007) Город Дорог\07 Есть Вопросы (Feat. Slim).wav
Пиковый уровень 98.8 % Скорость извлечения 2.5 X Качество трека 100.0 % CRC теста 3F1A880D CRC копии 3F1A880D Точное извлечение (достоверность 2) [D39CCDC9] (AR v1) Копирование... OK
Трек 8
Имя файла H:\Музон (Loseless)\Мои Рипы\Guf - Дискография (ALAC)\(2007) Город Дорог\08 Трамвайные Пути.wav
Пиковый уровень 98.8 % Скорость извлечения 2.4 X Качество трека 100.0 % CRC теста F80507DD CRC копии F80507DD Точное извлечение (достоверность 2) [CE7E2772] (AR v1) Копирование... OK
Трек 9
Имя файла H:\Музон (Loseless)\Мои Рипы\Guf - Дискография (ALAC)\(2007) Город Дорог\09 Скит От Принципа.wav
Пиковый уровень 98.8 % Скорость извлечения 1.5 X Качество трека 99.8 % CRC теста CB66A30F CRC копии CB66A30F Точное извлечение (достоверность 2) [8615634C] (AR v1) Копирование... OK
Трек 10
Имя файла H:\Музон (Loseless)\Мои Рипы\Guf - Дискография (ALAC)\(2007) Город Дорог\10 Новогодняя.wav
Пиковый уровень 98.8 % Скорость извлечения 2.7 X Качество трека 100.0 % CRC теста 7C062A07 CRC копии 7C062A07 Точное извлечение (достоверность 2) [648DDB49] (AR v1) Копирование... OK
Трек 11
Имя файла H:\Музон (Loseless)\Мои Рипы\Guf - Дискография (ALAC)\(2007) Город Дорог\11 Ориджинал Ба (Feat. Ба).wav
Пиковый уровень 98.8 % Скорость извлечения 2.9 X Качество трека 100.0 % CRC теста C7AE66CC CRC копии C7AE66CC Точное извлечение (достоверность 2) [7F5D346D] (AR v1) Копирование... OK
Трек 12
Имя файла H:\Музон (Loseless)\Мои Рипы\Guf - Дискография (ALAC)\(2007) Город Дорог\12 Вождь.wav
Пиковый уровень 98.8 % Скорость извлечения 2.7 X Качество трека 99.9 % CRC теста C9BE92DD CRC копии C9BE92DD Точное извлечение (достоверность 2) [EA662953] (AR v1) Копирование... OK
Трек 13
Имя файла H:\Музон (Loseless)\Мои Рипы\Guf - Дискография (ALAC)\(2007) Город Дорог\13 Скит От Санька.wav
Пиковый уровень 85.3 % Скорость извлечения 1.5 X Качество трека 100.0 % CRC теста 3A34178A CRC копии 3A34178A Точное извлечение (достоверность 2) [84EC3390] (AR v1) Копирование... OK
Трек 14
Имя файла H:\Музон (Loseless)\Мои Рипы\Guf - Дискография (ALAC)\(2007) Город Дорог\14 Тринити (Remix) (Feat. Иезекииль 25-17, Отрицательное Влияние).wav
Пиковый уровень 98.8 % Скорость извлечения 2.9 X Качество трека 99.9 % CRC теста B1D76603 CRC копии B1D76603 Точное извлечение (достоверность 2) [20007F06] (AR v1) Копирование... OK
Трек 15
Имя файла H:\Музон (Loseless)\Мои Рипы\Guf - Дискография (ALAC)\(2007) Город Дорог\15 Мутные Замуты (Feat. Slim, Птаха).wav
Пиковый уровень 98.8 % Скорость извлечения 3.3 X Качество трека 100.0 % CRC теста 07247A3B CRC копии 07247A3B Точное извлечение (достоверность 2) [FC3B1D12] (AR v1) Копирование... OK
Трек 16
Имя файла H:\Музон (Loseless)\Мои Рипы\Guf - Дискография (ALAC)\(2007) Город Дорог\16 Новости.wav
Пиковый уровень 98.8 % Скорость извлечения 3.4 X Качество трека 100.0 % CRC теста 2B6DB1F1 CRC копии 2B6DB1F1 Точное извлечение (достоверность 2) [E4482EEB] (AR v1) Копирование... OK
Трек 17
Имя файла H:\Музон (Loseless)\Мои Рипы\Guf - Дискография (ALAC)\(2007) Город Дорог\17 Трамвайные Пути (Полная Версия) (Feat. 5 Плюх).wav
Пиковый уровень 98.8 % Скорость извлечения 3.0 X Качество трека 99.9 % CRC теста 4005EE6B CRC копии 4005EE6B Точное извлечение (достоверность 2) [2A57C59A] (AR v1) Копирование... OK
Трек 18
Имя файла H:\Музон (Loseless)\Мои Рипы\Guf - Дискография (ALAC)\(2007) Город Дорог\18 Аутро.wav
Пиковый уровень 96.6 % Скорость извлечения 0.4 X Качество трека 98.8 % CRC теста 0EBE4913 CRC копии 0EBE4913 Точное извлечение (достоверность 2) [ACC41396] (AR v1) Копирование... OK
17 трек(и) скопированы точно 1 трек(и) не удалось проверить на точность
Некоторые треки не прошли проверку на точность
Ошибок не произошло
Конец отчёта
==== Контрольная сумма отчёта 20CA3951E7548FC69D9D22BDB33F278885B16067A54D08A190FDB1883C4EDA3F ====

Содержание индексной карты (.CUE)

REM GENRE RapREM DATE 2007REM DISCID 080E6B13REM COMMENT "ExactAudioCopy v1.0b3"PERFORMER "Guf"TITLE "Город Дорог"FILE "01 Интро.wav" WAVE  TRACK 01 AUDIO    TITLE "Интро"    PERFORMER "Guf"    FLAGS DCP    INDEX 01 00:00:00FILE "02 Кто Как Играет.wav" WAVE  TRACK 02 AUDIO    TITLE "Кто Как Играет"    PERFORMER "Guf"    FLAGS DCP    INDEX 01 00:00:00FILE "03 Сплетни.wav" WAVE  TRACK 03 AUDIO    TITLE "Сплетни"    PERFORMER "Guf"    FLAGS DCP    INDEX 01 00:00:00FILE "04 Свадьба (Feat. Slim).wav" WAVE  TRACK 04 AUDIO    TITLE "Свадьба (Feat. Slim)"    PERFORMER "Guf"    FLAGS DCP    INDEX 01 00:00:00FILE "05 Хлоп Хлоп (Feat. Птаха).wav" WAVE  TRACK 05 AUDIO    TITLE "Хлоп Хлоп (Feat. Птаха)"    PERFORMER "Guf"    FLAGS DCP    INDEX 01 00:00:00FILE "06 Ямакаси.wav" WAVE  TRACK 06 AUDIO    TITLE "Ямакаси"    PERFORMER "Guf"    FLAGS DCP    INDEX 01 00:00:00FILE "07 Есть Вопросы (Feat. Slim).wav" WAVE  TRACK 07 AUDIO    TITLE "Есть Вопросы (Feat. Slim)"    PERFORMER "Guf"    FLAGS DCP    INDEX 01 00:00:00FILE "08 Трамвайные Пути.wav" WAVE  TRACK 08 AUDIO    TITLE "Трамвайные Пути"    PERFORMER "Guf"    FLAGS DCP    INDEX 01 00:00:00FILE "09 Скит От Принципа.wav" WAVE  TRACK 09 AUDIO    TITLE "Скит От Принципа"    PERFORMER "Guf"    FLAGS DCP    INDEX 01 00:00:00FILE "10 Новогодняя.wav" WAVE  TRACK 10 AUDIO    TITLE "Новогодняя"    PERFORMER "Guf"    FLAGS DCP    INDEX 01 00:00:00FILE "11 Ориджинал Ба (Feat. Ба).wav" WAVE  TRACK 11 AUDIO    TITLE "Ориджинал Ба (Feat. Ба)"    PERFORMER "Guf"    FLAGS DCP    INDEX 01 00:00:00FILE "12 Вождь.wav" WAVE  TRACK 12 AUDIO    TITLE "Вождь"    PERFORMER "Guf"    FLAGS DCP    INDEX 01 00:00:00FILE "13 Скит От Санька.wav" WAVE  TRACK 13 AUDIO    TITLE "Скит От Санька"    PERFORMER "Guf"    FLAGS DCP    INDEX 01 00:00:00FILE "14 Тринити (Remix) (Feat. Иезекииль 25-17, Отрицательное Влияние).wav" WAVE  TRACK 14 AUDIO    TITLE "Тринити (Remix) (Feat. Иезекииль 25-17, Отрицательное Влияние)"    PERFORMER "Guf"    FLAGS DCP    INDEX 01 00:00:00FILE "15 Мутные Замуты (Feat. Slim, Птаха).wav" WAVE  TRACK 15 AUDIO    TITLE "Мутные Замуты (Feat. Slim, Птаха)"    PERFORMER "Guf"    FLAGS DCP    INDEX 01 00:00:00FILE "16 Новости.wav" WAVE  TRACK 16 AUDIO    TITLE "Новости"    PERFORMER "Guf"    FLAGS DCP    INDEX 01 00:00:00FILE "17 Трамвайные Пути (Полная Версия) (Feat. 5 Плюх).wav" WAVE  TRACK 17 AUDIO    TITLE "Трамвайные Пути (Полная Версия) (Feat. 5 Плюх)"    PERFORMER "Guf"    FLAGS DCP    INDEX 01 00:00:00FILE "18 Аутро.wav" WAVE  TRACK 18 AUDIO    TITLE "Аутро"    PERFORMER "Guf"    FLAGS DCP    INDEX 01 00:00:00

Лог проверки качества

Скриншот спектра частот

Об альбоме (сборнике)

«Го́род до́рог» — первый официальный альбом российского рэпера Guf’а, выпущенный в 2007 году. Фактически это первый релиз участников группы CENTR. Он вышел ещё до издания альбома «Качели».
Большинство песен альбома посвящено темам употребления наркотиков, субкультуре наркоманов. В песнях альбома встречается ненормативная лексика. Журнал Rolling Stone в своей рецензии на альбом отметил, что «во всех дисциплинах некоммерческого хип-хопа Guf заслуживает самого высшего балла», а сайт Rap.ru поставил «Город дорог» в один ряд с лучшими альбомами русского рэпа.
-

Дополнительная информация

-Сведение: 2, 3, 4, 6, 7, 8, 9, 11, 12, 14, 15, 16, 17 - Brooklyn Only; 5 - Тёмный; 10 - Шым;
Мастеринг: Brooklyn Only
Ковер дизайн: Бледный
Студии записи: Anik Records, ЦАО Records-

Скриншоты


(2009) Дома

Издатель (лейбл): ООО "ПК Монолит"
Номер по каталогу: Monolit №280464 LS 4991
Продолжительность: 00:56:23
- -Треклист:-01. Интро (01:22)
Музыка: Miko
02. Больше Стаффа (04:32)
Музыка: Miko
03. Под Балконом (04:32)
Музыка: Miko
04. Не Всё Потеряно Пока (Feat. Баста) (04:26)
Музыка: Баста
05. Заходит Луна (Feat. Принцип) (03:38)
Музыка: Miko
06. Для Неё (03:21)
Музыка: Nell
07. Провода (Feat. Миг29) (03:42)
Музыка: Miko
08. Skittles (Skit) (Feat. Бу) (02:03)
Музыка: Miko
09. Ice Baby (04:12)
Музыка: Sontino, DJ Shved
10. Сверху Видно Всё (Feat. TAHDEM Foundation) (03:53)
Музыка: Miko
11. Хм (Skit) (01:24)
Музыка: Miko
12. Metropolitan Mail (03:33)
Музыка: Miko
13. Надо Лечиться (03:02)
Музыка: Miko
14. Калпак (Feat. Mark) (02:25)
Музыка: Miko
15. Было Давно (03:53)
Музыка: Капелла
16. Дома (Feat. Ба) (04:33)
Музыка: Miko
17. Аутро (01:50)
Музыка: Miko-

Лог создания рипа

Exact Audio Copy V1.1 from 23. June 2015
Отчёт EAC об извлечении, выполненном 21. ноября 2016, 1:13
Guf / Дома
Дисковод: HL-DT-STDVDRAM GP60NB60 Adapter: 1 ID: 1
Режим чтения : ДостоверностьИспользование точного потока : ДаОтключение кэша аудио : ДаИспользование указателей C2 : Нет
Коррекция смещения при чтении : 6Способность читать области Lead-in и Lead-out : НетЗаполнение пропущенных сэмплов тишиной : ДаУдаление блоков с тишиной в начале и конце : НетПри вычислениях CRC использовались нулевые сэмплы : ДаИнтерфейс : Встроенный Win32-интерфейс для Win NT/2000Обработка зазоров : Добавлено к предыдущему треку
Выходной формат : Пользовательский кодировщикВыбранный битрейт : 128 kBit/sКачество : ВысокийДобавление ID3-тега : НетУтилита сжатия : C:\Program Files\Foobar2000\encoders\refalac64.exeДополнительные параметры : -s --ignorelength --artist "%artist%" --composer "%composer%" --track "%tracknr%"/"%numtracks%" --disk "%cdnumber%"/"%totalcds%" --title "%title%" --album "%albumtitle%" --date "%year%" --genre "%genre%" %haslyrics%--lyrics "%lyricsfile%"%haslyrics% %hascover%--artwork "%coverfile%"%hascover% -o %dest% %source%
TOC извлечённого CD
Трек | Старт | Длительность | Начальный сектор | Конечный сектор --------------------------------------------------------------------- 1 | 0:00.00 | 1:21.69 | 0 | 6143 2 | 1:21.69 | 4:32.34 | 6144 | 26577 3 | 5:54.28 | 4:31.62 | 26578 | 46964 4 | 10:26.15 | 4:26.31 | 46965 | 66945 5 | 14:52.46 | 3:37.53 | 66946 | 83273 6 | 18:30.24 | 3:21.07 | 83274 | 98355 7 | 21:51.31 | 3:42.06 | 98356 | 115011 8 | 25:33.37 | 2:02.61 | 115012 | 124222 9 | 27:36.23 | 4:12.13 | 124223 | 143135 10 | 31:48.36 | 3:53.07 | 143136 | 160617 11 | 35:41.43 | 1:23.38 | 160618 | 166880 12 | 37:05.06 | 3:32.73 | 166881 | 182853 13 | 40:38.04 | 3:02.06 | 182854 | 196509 14 | 43:40.10 | 2:25.01 | 196510 | 207385 15 | 46:05.11 | 3:53.16 | 207386 | 224876 16 | 49:58.27 | 4:33.28 | 224877 | 245379 17 | 54:31.55 | 1:50.34 | 245380 | 253663
Трек 1
Имя файла H:\Музон (Loseless)\Мои Рипы\Guf - Дискография (ALAC)\(2009) Дома\01. Интро.wav
Длина предзазора 0:00:02.00
Пиковый уровень 100.0 % Скорость извлечения 1.9 X Качество трека 100.0 % CRC теста 62358680 CRC копии 62358680 Копирование... OK
Трек 2
Имя файла H:\Музон (Loseless)\Мои Рипы\Guf - Дискография (ALAC)\(2009) Дома\02. Больше Стаффа.wav
Пиковый уровень 97.0 % Скорость извлечения 2.7 X Качество трека 100.0 % CRC теста 28822FC4 CRC копии 28822FC4 Копирование... OK
Трек 3
Имя файла H:\Музон (Loseless)\Мои Рипы\Guf - Дискография (ALAC)\(2009) Дома\03. Под Балконом.wav
Пиковый уровень 100.0 % Скорость извлечения 3.0 X Качество трека 100.0 % CRC теста CD002B7A CRC копии CD002B7A Копирование... OK
Трек 4
Имя файла H:\Музон (Loseless)\Мои Рипы\Guf - Дискография (ALAC)\(2009) Дома\04. Не Всё Потеряно (Feat. Баста).wav
Пиковый уровень 100.0 % Скорость извлечения 3.3 X Качество трека 100.0 % CRC теста 5C7B598C CRC копии 5C7B598C Копирование... OK
Трек 5
Имя файла H:\Музон (Loseless)\Мои Рипы\Guf - Дискография (ALAC)\(2009) Дома\05. Заходит Луна (Feat. Princip).wav
Пиковый уровень 100.0 % Скорость извлечения 3.5 X Качество трека 100.0 % CRC теста FE5D4F57 CRC копии FE5D4F57 Копирование... OK
Трек 6
Имя файла H:\Музон (Loseless)\Мои Рипы\Guf - Дискография (ALAC)\(2009) Дома\06. Для Неё.wav
Пиковый уровень 100.0 % Скорость извлечения 3.6 X Качество трека 100.0 % CRC теста BCBD3647 CRC копии BCBD3647 Копирование... OK
Трек 7
Имя файла H:\Музон (Loseless)\Мои Рипы\Guf - Дискография (ALAC)\(2009) Дома\07. Провода (Feat. Миг29).wav
Пиковый уровень 100.0 % Скорость извлечения 3.4 X Качество трека 99.9 % CRC теста E946109E CRC копии E946109E Копирование... OK
Трек 8
Имя файла H:\Музон (Loseless)\Мои Рипы\Guf - Дискография (ALAC)\(2009) Дома\08. Skittles (Skit) (Feat. Бу).wav
Пиковый уровень 88.5 % Скорость извлечения 2.9 X Качество трека 99.9 % CRC теста 3724773D CRC копии 3724773D Копирование... OK
Трек 9
Имя файла H:\Музон (Loseless)\Мои Рипы\Guf - Дискография (ALAC)\(2009) Дома\09. Ice Baby.wav
Пиковый уровень 100.0 % Скорость извлечения 4.2 X Качество трека 100.0 % CRC теста F4D1A7C7 CRC копии F4D1A7C7 Копирование... OK
Трек 10
Имя файла H:\Музон (Loseless)\Мои Рипы\Guf - Дискография (ALAC)\(2009) Дома\10. Сверху Видно Всё (Feat. TAHDEM Foundation).wav
Пиковый уровень 100.0 % Скорость извлечения 4.3 X Качество трека 100.0 % CRC теста 1C3230A1 CRC копии 1C3230A1 Копирование... OK
Трек 11
Имя файла H:\Музон (Loseless)\Мои Рипы\Guf - Дискография (ALAC)\(2009) Дома\11. Хм... (Skit).wav
Пиковый уровень 89.9 % Скорость извлечения 3.5 X Качество трека 100.0 % CRC теста 0942B732 CRC копии 0942B732 Копирование... OK
Трек 12
Имя файла H:\Музон (Loseless)\Мои Рипы\Guf - Дискография (ALAC)\(2009) Дома\12. Metropolitan Mail.wav
Пиковый уровень 100.0 % Скорость извлечения 4.5 X Качество трека 100.0 % CRC теста 60BA9CF2 CRC копии 60BA9CF2 Копирование... OK
Трек 13
Имя файла H:\Музон (Loseless)\Мои Рипы\Guf - Дискография (ALAC)\(2009) Дома\13. Надо Лечиться.wav
Пиковый уровень 100.0 % Скорость извлечения 4.5 X Качество трека 100.0 % CRC теста 39440C1E CRC копии 39440C1E Копирование... OK
Трек 14
Имя файла H:\Музон (Loseless)\Мои Рипы\Guf - Дискография (ALAC)\(2009) Дома\14. Калпак (Feat. Mark).wav
Пиковый уровень 100.0 % Скорость извлечения 4.4 X Качество трека 100.0 % CRC теста FE5CCC48 CRC копии FE5CCC48 Копирование... OK
Трек 15
Имя файла H:\Музон (Loseless)\Мои Рипы\Guf - Дискография (ALAC)\(2009) Дома\15. Было Давно.wav
Пиковый уровень 92.3 % Скорость извлечения 4.9 X Качество трека 100.0 % CRC теста 2A9FA53D CRC копии 2A9FA53D Копирование... OK
Трек 16
Имя файла H:\Музон (Loseless)\Мои Рипы\Guf - Дискография (ALAC)\(2009) Дома\16. Дома (Feat. Ба).wav
Пиковый уровень 100.0 % Скорость извлечения 5.1 X Качество трека 100.0 % CRC теста 5770059E CRC копии 5770059E Копирование... OK
Трек 17
Имя файла H:\Музон (Loseless)\Мои Рипы\Guf - Дискография (ALAC)\(2009) Дома\17. Аутро.wav
Пиковый уровень 100.0 % Скорость извлечения 4.4 X Качество трека 100.0 % CRC теста 7CF61254 CRC копии 7CF61254 Копирование... OK
Ошибок не произошло
Конец отчёта
---- CUETools DB Plugin V2.1.6
[CTDB TOCID: CqVB4WtiTyyn8hJqK4lUXVZ1Ssw-] foundSubmit result: CqVB4WtiTyyn8hJqK4lUXVZ1Ssw- has been confirmedTrack | CTDB Status 1 | (4/4) Accurately ripped 2 | (4/4) Accurately ripped 3 | (4/4) Accurately ripped 4 | (4/4) Accurately ripped 5 | (4/4) Accurately ripped 6 | (4/4) Accurately ripped 7 | (4/4) Accurately ripped 8 | (4/4) Accurately ripped 9 | (4/4) Accurately ripped 10 | (4/4) Accurately ripped 11 | (4/4) Accurately ripped 12 | (4/4) Accurately ripped 13 | (4/4) Accurately ripped 14 | (4/4) Accurately ripped 15 | (4/4) Accurately ripped 16 | (4/4) Accurately ripped 17 | (4/4) Accurately ripped
==== Контрольная сумма отчёта 593B5A06318EC4669163707E3286566FDE6E914F203E0072A6A03FFF122E98BC ====

Содержание индексной карты (.CUE)

REM GENRE RapREM DATE 2009REM DISCID CF0D3611REM COMMENT "ExactAudioCopy v1.1"PERFORMER "Guf"TITLE "Дома"FILE "01. Интро.wav" WAVE  TRACK 01 AUDIO    TITLE "Интро"    PERFORMER "Guf"    INDEX 01 00:00:00FILE "02. Больше Стаффа.wav" WAVE  TRACK 02 AUDIO    TITLE "Больше Стаффа"    PERFORMER "Guf"    INDEX 01 00:00:00FILE "03. Под Балконом.wav" WAVE  TRACK 03 AUDIO    TITLE "Под Балконом"    PERFORMER "Guf"    INDEX 01 00:00:00FILE "04. Не Всё Потеряно (Feat. Баста).wav" WAVE  TRACK 04 AUDIO    TITLE "Не Всё Потеряно (Feat. Баста)"    PERFORMER "Guf"    INDEX 01 00:00:00FILE "05. Заходит Луна (Feat. Princip).wav" WAVE  TRACK 05 AUDIO    TITLE "Заходит Луна (Feat. Princip)"    PERFORMER "Guf"    INDEX 01 00:00:00FILE "06. Для Неё.wav" WAVE  TRACK 06 AUDIO    TITLE "Для Неё"    PERFORMER "Guf"    INDEX 01 00:00:00FILE "07. Провода (Feat. Миг29).wav" WAVE  TRACK 07 AUDIO    TITLE "Провода (Feat. Миг29)"    PERFORMER "Guf"    INDEX 01 00:00:00FILE "08. Skittles (Skit) (Feat. Бу).wav" WAVE  TRACK 08 AUDIO    TITLE "Skittles (Skit) (Feat. Бу)"    PERFORMER "Guf"    INDEX 01 00:00:00FILE "09. Ice Baby.wav" WAVE  TRACK 09 AUDIO    TITLE "Ice Baby"    PERFORMER "Guf"    INDEX 01 00:00:00FILE "10. Сверху Видно Всё (Feat. TAHDEM Foundation).wav" WAVE  TRACK 10 AUDIO    TITLE "Сверху Видно Всё (Feat. TAHDEM Foundation)"    PERFORMER "Guf"    INDEX 01 00:00:00FILE "11. Хм... (Skit).wav" WAVE  TRACK 11 AUDIO    TITLE "Хм... (Skit)"    PERFORMER "Guf"    INDEX 01 00:00:00FILE "12. Metropolitan Mail.wav" WAVE  TRACK 12 AUDIO    TITLE "Metropolitan Mail"    PERFORMER "Guf"    INDEX 01 00:00:00FILE "13. Надо Лечиться.wav" WAVE  TRACK 13 AUDIO    TITLE "Надо Лечиться"    PERFORMER "Guf"    INDEX 01 00:00:00FILE "14. Калпак (Feat. Mark).wav" WAVE  TRACK 14 AUDIO    TITLE "Калпак (Feat. Mark)"    PERFORMER "Guf"    INDEX 01 00:00:00FILE "15. Было Давно.wav" WAVE  TRACK 15 AUDIO    TITLE "Было Давно"    PERFORMER "Guf"    INDEX 01 00:00:00FILE "16. Дома (Feat. Ба).wav" WAVE  TRACK 16 AUDIO    TITLE "Дома (Feat. Ба)"    PERFORMER "Guf"    INDEX 01 00:00:00FILE "17. Аутро.wav" WAVE  TRACK 17 AUDIO    TITLE "Аутро"    PERFORMER "Guf"    INDEX 01 00:00:00

Лог проверки качества

-----------------------
DON'T MODIFY THIS FILE
-----------------------
PERFORMER: auCDtect Task Manager, ver. 1.6.0 RC1 build 1.6.0.1Copyright (c) 2008-2010 y-soft. All rights reservedhttp://y-soft.org
ANALYZER: auCDtect: CD records authenticity detector, version 0.8.2Copyright (c) 2004 Oleg Berngardt. All rights reserved.Copyright (c) 2004 Alexander Djourik. All rights reserved.
FILE: 01. Интро.m4a Size: 7523537 Hash: CA9B0C4034E019F2F11620DE0AD4B118 Accuracy: -m0 Conclusion: CDDA 100% Signature: 0A1D79785DB07DDFF95823D4B252A3DE45EE3485FILE: 02. Больше Стаффа.m4a Size: 30582958 Hash: 2F7603C239328AF569C741392253D064 Accuracy: -m0 Conclusion: CDDA 100% Signature: 4FBF8007B3B57E2721B44C7D552BB1E435BEAEA9FILE: 03. Под Балконом.m4a Size: 30360352 Hash: EDCAF31D5D720D551F9454C2147A929E Accuracy: -m0 Conclusion: CDDA 100% Signature: CA443B971498BCBBE182F815590982374E718983FILE: 04. Не Всё Потеряно (Feat. Баста).m4a Size: 27785469 Hash: 204EB13729304BA7EA1E33D5BA3A5B87 Accuracy: -m0 Conclusion: CDDA 100% Signature: 45282E495F2BE36A5D8E066BF36C7400BD238D0BFILE: 05. Заходит Луна (Feat. Princip).m4a Size: 23179114 Hash: 0A005D1EFB0C2D5B515EE92E4A04F6AE Accuracy: -m0 Conclusion: CDDA 100% Signature: BA1082E24A424ACAE75038C578CA3C1D05AE8423FILE: 06. Для Неё.m4a Size: 21433283 Hash: 72839A62FFF5AAF63C9E5363AC5C4BB0 Accuracy: -m0 Conclusion: CDDA 100% Signature: 16E800C816B8FC93FEDDB996310C41C869B7B075FILE: 07. Провода (Feat. Миг29).m4a Size: 23009525 Hash: E2AF0E9BFD0FBAE375FA8DE007B75F16 Accuracy: -m0 Conclusion: CDDA 100% Signature: E4F3DD8B67873DF29F9DFF864D7FC5E3B616C568FILE: 08. Skittles (Skit) (Feat. Бу).m4a Size: 13030009 Hash: 993CC6BB04918DBE95308042B03375AD Accuracy: -m0 Conclusion: CDDA 99% Signature: 7FAEA3BF8A393242DBA47DF641381F1F71B31D0FFILE: 09. Ice Baby.m4a Size: 27299041 Hash: 25D844BBB9B43814AED004A8F50169E4 Accuracy: -m0 Conclusion: CDDA 100% Signature: 2E370A38AD88CAF7CCE53439FB2978F047741582FILE: 10. Сверху Видно Всё (Feat. TAHDEM Foundation).m4a Size: 28083718 Hash: D2F7AB16B8358725699E4737DCDDEFF8 Accuracy: -m0 Conclusion: CDDA 100% Signature: 05942C3148DC415EA362F3B87F654D9BF1742E5BFILE: 11. Хм... (Skit).m4a Size: 9038492 Hash: F53A5B1F8044A90E7D760CB84035AF0C Accuracy: -m0 Conclusion: CDDA 100% Signature: 21E134D93C10D01972062D61E909BD5406502AEBFILE: 12. Metropolitan Mail.m4a Size: 24514888 Hash: DE0724259EAAB0E20C2AA010871D8CF8 Accuracy: -m0 Conclusion: CDDA 100% Signature: 80B38186BE16240DA9600C030BC69508E3E88526FILE: 13. Надо Лечиться.m4a Size: 20254684 Hash: BAB39EB67A74DA0613C97B40D6AD1736 Accuracy: -m0 Conclusion: CDDA 100% Signature: 77414B0B6EE4791D95C63F59A9263E458B4C27E9FILE: 14. Калпак (Feat. Mark).m4a Size: 14681105 Hash: B2FCF6B8F14F186D16CCAEAC5FF47AD4 Accuracy: -m0 Conclusion: CDDA 100% Signature: D59A769404FFBB4BA29173F3420E1151ED7EDB91FILE: 15. Было Давно.m4a Size: 26405008 Hash: B68F525D40733F21094D86E582B49BF1 Accuracy: -m0 Conclusion: CDDA 100% Signature: F05070707DA1DD9611DE6580BCD80D7552AE8C0FFILE: 16. Дома (Feat. Ба).m4a Size: 26682153 Hash: 98F156CC67EBCFB1E7A39DA1033D0F6C Accuracy: -m0 Conclusion: CDDA 100% Signature: 18407AD8115EED685BDD2E8167BF855A0E1AC691FILE: 17. Аутро.m4a Size: 12501138 Hash: D66242590FC02D7875636BFD8E167237 Accuracy: -m0 Conclusion: CDDA 100% Signature: 71DE5CF092C42406D3D765AD0FF4B53E582C6280

Скриншот спектра частот

Об альбоме (сборнике)

«Дома» — второй альбом российского рэп-исполнителя Guf’а, вышедший 3 декабря 2009 года. Сингл с альбома «Ice Baby» занял 12 строчку в российском чарте цифровых треков.
Альбом «Дома» является первым релизом «ZM» и первым «самостоятельным» альбомом Гуфа, записанным не на «ЦАО», после распада группы «Centr».
-

Дополнительная информация

-Запись, сведение, мастеринг: Miko (студия GLSS)
Скретчи: DJ Cave
Фотографии: Айза, Евгений Коропцов
Дизайн обложки: Евгений Коропцов-

Скриншоты


(2012) Сам И...

Издатель (лейбл): ООО "ДиВиДи-Клуб"
Номер по каталогу: -
Продолжительность: 01:19:30
- -Треклист:-01. Вход (01:52)
Музыка: FD Vadim
02. Хобби (03:27)
Музыка: FD Vadim
03. Спокоен (Feat. ОУ74) (04:22)
Музыка: Лёша Прио
04. На Пол (02:39)
Музыка: Борода
05. Сегодня Завтра (04:54)
Музыка: FD Vadim
06. Наш Почерк (Feat. Смоки Мо) (03:30)
Музыка: Смоки Мо
07. Распорядок Дня (03:52)
Музыка: Лион & Bestseller
08. Бессоница (Feat. Murovei) (03:53)
Музыка: Murovei
09. Баллада (03:28)
Музыка: Смоки Мо
10. Мои Демоны (Feat. Принцип, 5 Плюх, Arxi) (03:23)
Музыка: FD Vadim
11. Гуф Умер (Feat. Баста) (03:03)
Музыка: Баста
12. Ремесло (Feat. ОУ74) (02:53)
Музыка: Plastik
13. Фанзона (03:31)
Музыка: Miko
14. Скит С Сэмом (00:36)
Музыка: Miko
15. Новенький (03:18)
Музыка: Miko
16. ПНП (Feat. Триагрутрика) (04:21)
Музыка: Puzo
17. Начало Конца (04:08)
Музыка: FD Vadim
18. О Лени (Feat. ОУ74) (04:21)
Музыка: FD Vadim
19. Письмо Домой (04:38)
Музыка: FD Vadim
20. Скажи (Feat. TAHDEM Foundation) (03:34)
Музыка: FD Vadim
21. На Дно (03:10)
Музыка: FD Vadim
22. Наугад (03:17)
Музыка: DJ Shved
23. Выход (03:20)
Музыка: Miko-

Лог создания рипа

Exact Audio Copy V1.0 beta 3 from 29. August 2011
Отчёт EAC об извлечении, выполненном 20. мая 2015, 17:10
Guf / Сам И...
Дисковод: TSSTcorpCDDVDW SH-224BB Adapter: 0 ID: 0
Режим чтения : ДостоверностьИспользование точного потока : ДаОтключение кэша аудио : ДаИспользование указателей C2 : Нет
Коррекция смещения при чтении : 6Способность читать области Lead-in и Lead-out : НетЗаполнение пропущенных сэмплов тишиной : ДаУдаление блоков с тишиной в начале и конце : НетПри вычислениях CRC использовались нулевые сэмплы : ДаИнтерфейс : Встроенный Win32-интерфейс для Win NT/2000Обработка зазоров : Добавлено к предыдущему треку
Выходной формат : Пользовательский кодировщикВыбранный битрейт : 896 kBit/sКачество : ВысокийДобавление ID3-тега : НетУтилита сжатия : C:\Program Files\Foobar2000 zPack\encoders\refalac64.exeДополнительные параметры : -s --ignorelength --artist "%artist%" --title "%title%" --album "%albumtitle%" --date "%year%" --track "%tracknr%" --genre "%genre%" -o %dest% %source%
TOC извлечённого CD
Трек | Старт | Длительность | Начальный сектор | Конечный сектор --------------------------------------------------------------------- 1 | 0:00.00 | 1:52.23 | 0 | 8422 2 | 1:52.23 | 3:27.29 | 8423 | 23976 3 | 5:19.52 | 4:21.62 | 23977 | 43613 4 | 9:41.39 | 2:38.73 | 43614 | 55536 5 | 12:20.37 | 4:53.48 | 55537 | 77559 6 | 17:14.10 | 3:30.20 | 77560 | 93329 7 | 20:44.30 | 3:52.12 | 93330 | 110741 8 | 24:36.42 | 3:53.09 | 110742 | 128225 9 | 28:29.51 | 3:27.51 | 128226 | 143801 10 | 31:57.27 | 3:22.58 | 143802 | 159009 11 | 35:20.10 | 3:03.06 | 159010 | 172740 12 | 38:23.16 | 2:53.02 | 172741 | 185717 13 | 41:16.18 | 3:30.60 | 185718 | 201527 14 | 44:47.03 | 0:35.66 | 201528 | 204218 15 | 45:22.69 | 3:18.35 | 204219 | 219103 16 | 48:41.29 | 4:20.42 | 219104 | 238645 17 | 53:01.71 | 4:08.35 | 238646 | 257280 18 | 57:10.31 | 4:21.22 | 257281 | 276877 19 | 61:31.53 | 4:37.38 | 276878 | 297690 20 | 66:09.16 | 3:33.46 | 297691 | 313711 21 | 69:42.62 | 3:09.68 | 313712 | 327954 22 | 72:52.55 | 3:17.20 | 327955 | 342749 23 | 76:10.00 | 3:19.54 | 342750 | 357728
Трек 1
Имя файла H:\Музон (Loseless)\Мои Рипы\Guf - Дискография (ALAC)\(2012) Сам И\01 Вход.wav
Длина предзазора 0:00:02.00
Пиковый уровень 100.0 % Скорость извлечения 4.1 X Качество трека 100.0 % CRC теста 46197072 CRC копии 46197072 Трек не обнаружен в базе AccurateRip Копирование... OK
Трек 2
Имя файла H:\Музон (Loseless)\Мои Рипы\Guf - Дискография (ALAC)\(2012) Сам И\02 Хобби.wav
Пиковый уровень 100.0 % Скорость извлечения 5.0 X Качество трека 100.0 % CRC теста 699AF0FC CRC копии 699AF0FC Трек не обнаружен в базе AccurateRip Копирование... OK
Трек 3
Имя файла H:\Музон (Loseless)\Мои Рипы\Guf - Дискография (ALAC)\(2012) Сам И\03 Спокоен (Feat. ОУ74).wav
Пиковый уровень 100.0 % Скорость извлечения 5.5 X Качество трека 100.0 % CRC теста 150C1A09 CRC копии 150C1A09 Трек не обнаружен в базе AccurateRip Копирование... OK
Трек 4
Имя файла H:\Музон (Loseless)\Мои Рипы\Guf - Дискография (ALAC)\(2012) Сам И\04 На Пол.wav
Пиковый уровень 100.0 % Скорость извлечения 5.5 X Качество трека 100.0 % CRC теста 57ED1244 CRC копии 57ED1244 Трек не обнаружен в базе AccurateRip Копирование... OK
Трек 5
Имя файла H:\Музон (Loseless)\Мои Рипы\Guf - Дискография (ALAC)\(2012) Сам И\05 Сегодня-Завтра.wav
Пиковый уровень 100.0 % Скорость извлечения 6.3 X Качество трека 100.0 % CRC теста 5CC3E9DF CRC копии 5CC3E9DF Трек не обнаружен в базе AccurateRip Копирование... OK
Трек 6
Имя файла H:\Музон (Loseless)\Мои Рипы\Guf - Дискография (ALAC)\(2012) Сам И\06 Наш Почерк (Feat. Смоки Мо).wav
Пиковый уровень 100.0 % Скорость извлечения 6.4 X Качество трека 100.0 % CRC теста FFB077DA CRC копии FFB077DA Трек не обнаружен в базе AccurateRip Копирование... OK
Трек 7
Имя файла H:\Музон (Loseless)\Мои Рипы\Guf - Дискография (ALAC)\(2012) Сам И\07 Распорядок Дня.wav
Пиковый уровень 100.0 % Скорость извлечения 6.8 X Качество трека 100.0 % CRC теста FF941113 CRC копии FF941113 Трек не обнаружен в базе AccurateRip Копирование... OK
Трек 8
Имя файла H:\Музон (Loseless)\Мои Рипы\Guf - Дискография (ALAC)\(2012) Сам И\08 Бессоница (Feat. Murovei).wav
Пиковый уровень 99.3 % Скорость извлечения 7.1 X Качество трека 100.0 % CRC теста 2008F9A3 CRC копии 2008F9A3 Трек не обнаружен в базе AccurateRip Копирование... OK
Трек 9
Имя файла H:\Музон (Loseless)\Мои Рипы\Guf - Дискография (ALAC)\(2012) Сам И\09 Баллада.wav
Пиковый уровень 100.0 % Скорость извлечения 7.2 X Качество трека 100.0 % CRC теста 183671E5 CRC копии 183671E5 Трек не обнаружен в базе AccurateRip Копирование... OK
Трек 10
Имя файла H:\Музон (Loseless)\Мои Рипы\Guf - Дискография (ALAC)\(2012) Сам И\10 Мои Демоны (Feat. Принцип, 5 Плюх, Arxi).wav
Пиковый уровень 100.0 % Скорость извлечения 7.4 X Качество трека 100.0 % CRC теста 877E3D46 CRC копии 877E3D46 Трек не обнаружен в базе AccurateRip Копирование... OK
Трек 11
Имя файла H:\Музон (Loseless)\Мои Рипы\Guf - Дискография (ALAC)\(2012) Сам И\11 Гуф Умер (Feat. Баста).wav
Пиковый уровень 100.0 % Скорость извлечения 7.4 X Качество трека 100.0 % CRC теста 294A1D53 CRC копии 294A1D53 Трек не обнаружен в базе AccurateRip Копирование... OK
Трек 12
Имя файла H:\Музон (Loseless)\Мои Рипы\Guf - Дискография (ALAC)\(2012) Сам И\12 Ремесло (Feat. ОУ74).wav
Пиковый уровень 100.0 % Скорость извлечения 7.5 X Качество трека 100.0 % CRC теста BAC256F5 CRC копии BAC256F5 Трек не обнаружен в базе AccurateRip Копирование... OK
Трек 13
Имя файла H:\Музон (Loseless)\Мои Рипы\Guf - Дискография (ALAC)\(2012) Сам И\13 Фанзона.wav
Пиковый уровень 100.0 % Скорость извлечения 7.0 X Качество трека 99.9 % CRC теста B4D6AB29 CRC копии B4D6AB29 Трек не обнаружен в базе AccurateRip Копирование... OK
Трек 14
Имя файла H:\Музон (Loseless)\Мои Рипы\Guf - Дискография (ALAC)\(2012) Сам И\14 Скит С Сэмом.wav
Пиковый уровень 100.0 % Скорость извлечения 4.3 X Качество трека 100.0 % CRC теста 7F8FE28F CRC копии 7F8FE28F Трек не обнаружен в базе AccurateRip Копирование... OK
Трек 15
Имя файла H:\Музон (Loseless)\Мои Рипы\Guf - Дискография (ALAC)\(2012) Сам И\15 Новенький.wav
Пиковый уровень 100.0 % Скорость извлечения 8.2 X Качество трека 100.0 % CRC теста DACBABCE CRC копии DACBABCE Трек не обнаружен в базе AccurateRip Копирование... OK
Трек 16
Имя файла H:\Музон (Loseless)\Мои Рипы\Guf - Дискография (ALAC)\(2012) Сам И\16 ПНП (Feat. Триагрутрика).wav
Пиковый уровень 100.0 % Скорость извлечения 8.7 X Качество трека 100.0 % CRC теста 997221C4 CRC копии 997221C4 Трек не обнаружен в базе AccurateRip Копирование... OK
Трек 17
Имя файла H:\Музон (Loseless)\Мои Рипы\Guf - Дискография (ALAC)\(2012) Сам И\17 Начало Конца.wav
Пиковый уровень 100.0 % Скорость извлечения 8.9 X Качество трека 100.0 % CRC теста DB6BC8FF CRC копии DB6BC8FF Трек не обнаружен в базе AccurateRip Копирование... OK
Трек 18
Имя файла H:\Музон (Loseless)\Мои Рипы\Guf - Дискография (ALAC)\(2012) Сам И\18 О Лени (Feat. ОУ74).wav
Пиковый уровень 100.0 % Скорость извлечения 8.2 X Качество трека 99.9 % CRC теста 9C174978 CRC копии 9C174978 Трек не обнаружен в базе AccurateRip Копирование... OK
Трек 19
Имя файла H:\Музон (Loseless)\Мои Рипы\Guf - Дискография (ALAC)\(2012) Сам И\19 Письмо Домой.wav
Пиковый уровень 100.0 % Скорость извлечения 9.5 X Качество трека 100.0 % CRC теста 2EFE0616 CRC копии 2EFE0616 Трек не обнаружен в базе AccurateRip Копирование... OK
Трек 20
Имя файла H:\Музон (Loseless)\Мои Рипы\Guf - Дискография (ALAC)\(2012) Сам И\20 Скажи (Feat. TAHDEM Foundation).wav
Пиковый уровень 100.0 % Скорость извлечения 9.4 X Качество трека 100.0 % CRC теста 125F27CD CRC копии 125F27CD Трек не обнаружен в базе AccurateRip Копирование... OK
Трек 21
Имя файла H:\Музон (Loseless)\Мои Рипы\Guf - Дискография (ALAC)\(2012) Сам И\21 На Дно.wav
Пиковый уровень 99.5 % Скорость извлечения 8.0 X Качество трека 99.9 % CRC теста 7CE3CFFB CRC копии 7CE3CFFB Трек не обнаружен в базе AccurateRip Копирование... OK
Трек 22
Имя файла H:\Музон (Loseless)\Мои Рипы\Guf - Дискография (ALAC)\(2012) Сам И\22 Наугад.wav
Пиковый уровень 100.0 % Скорость извлечения 9.6 X Качество трека 100.0 % CRC теста 1F28E2A8 CRC копии 1F28E2A8 Трек не обнаружен в базе AccurateRip Копирование... OK
Трек 23
Имя файла H:\Музон (Loseless)\Мои Рипы\Guf - Дискография (ALAC)\(2012) Сам И\23 Выход.wav
Пиковый уровень 99.8 % Скорость извлечения 9.7 X Качество трека 100.0 % CRC теста 7D3A8D81 CRC копии 7D3A8D81 Трек не обнаружен в базе AccurateRip Копирование... OK
Ни одного трека нет в базе AccurateRip
Ошибок не произошло
Конец отчёта
==== Контрольная сумма отчёта E9E9589633CFF580ABD59092652C0A1F5CD9563965CBCF9925C67CACC2355B08 ====

Содержание индексной карты (.CUE)

REM GENRE RapREM DATE 2012REM DISCID 4C12A117REM COMMENT "ExactAudioCopy v1.0b3"PERFORMER "Guf"TITLE "Сам И..."FILE "01 Вход.wav" WAVE  TRACK 01 AUDIO    TITLE "Вход"    PERFORMER "Guf"    FLAGS DCP    INDEX 01 00:00:00FILE "02 Хобби.wav" WAVE  TRACK 02 AUDIO    TITLE "Хобби"    PERFORMER "Guf"    FLAGS DCP    INDEX 01 00:00:00FILE "03 Спокоен (Feat. ОУ74).wav" WAVE  TRACK 03 AUDIO    TITLE "Спокоен (Feat. ОУ74)"    PERFORMER "Guf"    FLAGS DCP    INDEX 01 00:00:00FILE "04 На Пол.wav" WAVE  TRACK 04 AUDIO    TITLE "На Пол"    PERFORMER "Guf"    FLAGS DCP    INDEX 01 00:00:00FILE "05 Сегодня-Завтра.wav" WAVE  TRACK 05 AUDIO    TITLE "Сегодня-Завтра"    PERFORMER "Guf"    FLAGS DCP    INDEX 01 00:00:00FILE "06 Наш Почерк (Feat. Смоки Мо).wav" WAVE  TRACK 06 AUDIO    TITLE "Наш Почерк (Feat. Смоки Мо)"    PERFORMER "Guf"    FLAGS DCP    INDEX 01 00:00:00FILE "07 Распорядок Дня.wav" WAVE  TRACK 07 AUDIO    TITLE "Распорядок Дня"    PERFORMER "Guf"    FLAGS DCP    INDEX 01 00:00:00FILE "08 Бессоница (Feat. Murovei).wav" WAVE  TRACK 08 AUDIO    TITLE "Бессоница (Feat. Murovei)"    PERFORMER "Guf"    FLAGS DCP    INDEX 01 00:00:00FILE "09 Баллада.wav" WAVE  TRACK 09 AUDIO    TITLE "Баллада"    PERFORMER "Guf"    FLAGS DCP    INDEX 01 00:00:00FILE "10 Мои Демоны (Feat. Принцип, 5 Плюх, Arxi).wav" WAVE  TRACK 10 AUDIO    TITLE "Мои Демоны (Feat. Принцип, 5 Плюх, Arxi)"    PERFORMER "Guf"    FLAGS DCP    INDEX 01 00:00:00FILE "11 Гуф Умер (Feat. Баста).wav" WAVE  TRACK 11 AUDIO    TITLE "Гуф Умер (Feat. Баста)"    PERFORMER "Guf"    FLAGS DCP    INDEX 01 00:00:00FILE "12 Ремесло (Feat. ОУ74).wav" WAVE  TRACK 12 AUDIO    TITLE "Ремесло (Feat. ОУ74)"    PERFORMER "Guf"    FLAGS DCP    INDEX 01 00:00:00FILE "13 Фанзона.wav" WAVE  TRACK 13 AUDIO    TITLE "Фанзона"    PERFORMER "Guf"    FLAGS DCP    INDEX 01 00:00:00FILE "14 Скит С Сэмом.wav" WAVE  TRACK 14 AUDIO    TITLE "Скит С Сэмом"    PERFORMER "Guf"    FLAGS DCP    INDEX 01 00:00:00FILE "15 Новенький.wav" WAVE  TRACK 15 AUDIO    TITLE "Новенький"    PERFORMER "Guf"    FLAGS DCP    INDEX 01 00:00:00FILE "16 ПНП (Feat. Триагрутрика).wav" WAVE  TRACK 16 AUDIO    TITLE "ПНП (Feat. Триагрутрика)"    PERFORMER "Guf"    FLAGS DCP    INDEX 01 00:00:00FILE "17 Начало Конца.wav" WAVE  TRACK 17 AUDIO    TITLE "Начало Конца"    PERFORMER "Guf"    FLAGS DCP    INDEX 01 00:00:00FILE "18 О Лени (Feat. ОУ74).wav" WAVE  TRACK 18 AUDIO    TITLE "О Лени (Feat. ОУ74)"    PERFORMER "Guf"    FLAGS DCP    INDEX 01 00:00:00FILE "19 Письмо Домой.wav" WAVE  TRACK 19 AUDIO    TITLE "Письмо Домой"    PERFORMER "Guf"    FLAGS DCP    INDEX 01 00:00:00FILE "20 Скажи (Feat. TAHDEM Foundation).wav" WAVE  TRACK 20 AUDIO    TITLE "Скажи (Feat. TAHDEM Foundation)"    PERFORMER "Guf"    FLAGS DCP    INDEX 01 00:00:00FILE "21 На Дно.wav" WAVE  TRACK 21 AUDIO    TITLE "На Дно"    PERFORMER "Guf"    FLAGS DCP    INDEX 01 00:00:00FILE "22 Наугад.wav" WAVE  TRACK 22 AUDIO    TITLE "Наугад"    PERFORMER "Guf"    FLAGS DCP    INDEX 01 00:00:00FILE "23 Выход.wav" WAVE  TRACK 23 AUDIO    TITLE "Выход"    PERFORMER "Guf"    FLAGS DCP    INDEX 01 00:00:00

Лог проверки качества

-----------------------
DON'T MODIFY THIS FILE
-----------------------
PERFORMER: auCDtect Task Manager, ver. 1.6.0 RC1 build 1.6.0.1Copyright (c) 2008-2010 y-soft. All rights reservedhttp://y-soft.org
ANALYZER: auCDtect: CD records authenticity detector, version 0.8.2Copyright (c) 2004 Oleg Berngardt. All rights reserved.Copyright (c) 2004 Alexander Djourik. All rights reserved.
FILE: 01 Вход.m4a Size: 12844574 Hash: 4F2FE4C6080177EA29AAE8EF1F1A6C84 Accuracy: -m0 Conclusion: CDDA 100% Signature: AC1B95AF4B2783E84DC72F0BF6F6312100D5201EFILE: 02 Хобби.m4a Size: 23739151 Hash: F0EB9241F9CCEE0F9AA444373ED85880 Accuracy: -m0 Conclusion: CDDA 100% Signature: B170F72BBAE0DC7C30F92C74F7F9C5E93AE954FDFILE: 03 Спокоен (Feat. ОУ74).m4a Size: 27940501 Hash: 93340F8149437935C4F9D4546FB18D5C Accuracy: -m0 Conclusion: CDDA 99% Signature: E0AD448A9003DD18BEA22A564314724D60E09314FILE: 04 На Пол.m4a Size: 19361928 Hash: 1AA51C8621093FEDB3F9A0CCE92EBEEB Accuracy: -m0 Conclusion: CDDA 100% Signature: 990A9920D503C7AE392390B5522071C3C7B9B1EFFILE: 05 Сегодня-Завтра.m4a Size: 32452823 Hash: 160142D4F81BE37D20FA016581C000C0 Accuracy: -m0 Conclusion: CDDA 100% Signature: 0DF47CFBE38119251010DDCCB269E3B51E09DC78FILE: 06 Наш Почерк (Feat. Смоки Мо).m4a Size: 25817646 Hash: C5261C5E9AFF6009946F2C8C57CCFE3B Accuracy: -m0 Conclusion: CDDA 100% Signature: 3B56B4574276CC6EE14CB1F8AC790CD136ABAE51FILE: 07 Распорядок Дня.m4a Size: 26208823 Hash: B33B0CA37EE0EDCB6A146727F093B114 Accuracy: -m0 Conclusion: CDDA 99% Signature: 0FDE35F73552EC2129AC5D9D8A1EEE48E4DC835EFILE: 08 Бессоница (Feat. Murovei).m4a Size: 25375078 Hash: DBC873DC338E25957CDDEF24FA21FE4F Accuracy: -m0 Conclusion: CDDA 99% Signature: 9A9A872BF75A5DF1F2D9928DBABCB20A79CCC61AFILE: 09 Баллада.m4a Size: 24371984 Hash: 6831F3F1801D113050CD6F0544F9F8DB Accuracy: -m0 Conclusion: CDDA 100% Signature: ACC12D38CDC4D1C80D1CEDF9A0502B8682F123FDFILE: 10 Мои Демоны (Feat. Принцип, 5 Плюх, Arxi).m4a Size: 23490795 Hash: D1966E6ECD7896BAF070C012E13CF07C Accuracy: -m0 Conclusion: CDDA 100% Signature: 2CF6F45FB2AEE62C1F2CBFBF41CA646A11C90D14FILE: 11 Гуф Умер (Feat. Баста).m4a Size: 22162981 Hash: 927475B6EA3E1C2E64B2283A00E5E543 Accuracy: -m0 Conclusion: CDDA 100% Signature: 845DCB4F186D206AB7EAD5017C835543348BDEFEFILE: 12 Ремесло (Feat. ОУ74).m4a Size: 16708058 Hash: 64F987CE1D0DB8B26C3CE9243534849F Accuracy: -m0 Conclusion: CDDA 100% Signature: F715648FF6C084A17F0D4A11FB98CA0471F18CB5FILE: 13 Фанзона.m4a Size: 25685456 Hash: 8A171ABB2B6990B39C6FE4C1F2C30BB0 Accuracy: -m0 Conclusion: CDDA 100% Signature: 47F9F82A83B49BA875DAB167DF360A605A381CE6FILE: 14 Скит С Сэмом.m4a Size: 3775605 Hash: 3A92352E5F82EDA5D2EDA230331851DD Accuracy: -m0 Conclusion: CDDA 100% Signature: 3EE6231FCE9A0C33C178697926C18E81EB3E9977FILE: 15 Новенький.m4a Size: 23940314 Hash: 66741E90B3BAE4DA395B4D1490BA2505 Accuracy: -m0 Conclusion: CDDA 100% Signature: 38B3B3FC544F52BD86B0A7F8351DD44B659DF334FILE: 16 ПНП (Feat. Триагрутрика).m4a Size: 27582558 Hash: DE6A657DF5BFD956B686F5B71E0087CE Accuracy: -m0 Conclusion: CDDA 99% Signature: 74DCC595220A1CF3B3ACA313024FFA0A93AF771CFILE: 17 Начало Конца.m4a Size: 28020032 Hash: 5176E5075D3A1123D66D8217DA5E5513 Accuracy: -m0 Conclusion: CDDA 100% Signature: BAFADEFF0DC0F423D22AE72C53D2A003E818CC65FILE: 18 О Лени (Feat. ОУ74).m4a Size: 29380780 Hash: A6132D30E4ECA7A39BF20646DCA2CEF0 Accuracy: -m0 Conclusion: CDDA 100% Signature: E71675C5BC7E81B922711D45576C91FB29DA95CCFILE: 19 Письмо Домой.m4a Size: 31578420 Hash: DAB8DC3659B85A0E51C3D316689706CF Accuracy: -m0 Conclusion: CDDA 100% Signature: B240A5236B768FF1E68E6626C9CF87300C7DFC3EFILE: 20 Скажи (Feat. TAHDEM Foundation).m4a Size: 24057405 Hash: 18CB00AA652829C70FFC6FB9E57A8ED2 Accuracy: -m0 Conclusion: CDDA 99% Signature: 2D3468A1FD4FFC0194ADC311F6761ED51F7132E2FILE: 21 На Дно.m4a Size: 21474323 Hash: F725513491B8463D26C77E138CEE0A95 Accuracy: -m0 Conclusion: CDDA 100% Signature: 40A1159BD40CFB0C79116F6BDB45CCD3AE08D3CCFILE: 22 Наугад.m4a Size: 22023016 Hash: E7898CC9568B24E6279D2DE0C802F5CD Accuracy: -m0 Conclusion: CDDA 100% Signature: E3384A30EFDD18BEBCD5E0A9C93C1192D030087FFILE: 23 Выход.m4a Size: 21539107 Hash: 2A696098D40F608A48A34B8A181BC670 Accuracy: -m0 Conclusion: CDDA 100% Signature: 9F92BFD4FF6FC75BFAD1F1FA7B9BEA88A6E2C024

Скриншот спектра частот

Об альбоме (сборнике)

«Сам и…» — третий сольный альбом российского рэп-исполнителя Guf'а. 1 ноября 2012 года выложен для свободного скачивания на портале Rap.Ru, незадолго до приуроченной к выходу автограф-сессии, где можно было приобрести CD с копиями материала.
Рэпер включил в свою пластинку 23 песни, включая один скит с двухлетним сыном Сами. На альбоме чуть меньше половины гостевых участий.
-

Дополнительная информация

-Cведение: Борода
Мастеринг: Tengiz
Оформление: Anton Nikolaev-

Скриншоты


(2015) Ещё

Издатель (лейбл): ЗАО "С.Б.А. Мьюзик Паблишинг"
Номер по каталогу: GL10840
Продолжительность: 00:57:23
- -Треклист:-01. Хэллоу (02:36)
02. Маугли (03:14)
03. Выдох-Вдох (02:50)
04. Неделя (04:27)
05. До Ста (03:14)
06. На Связи (Скит) (02:16)
07. Трамвай #2 (02:23)
08. На Таран (Feat. Centr) (04:54)
09. Н.Г.2 (03:23)
10. A.C.A.B. (Feat. Princip) (03:44)
11. На Пальме (03:32)
12. Архив (Скит) (02:06)
13. Другой Город (Feat. Каспийский Груз) (04:52)
14. Хочу Ещё (03:57)
15. Вживую (Feat. Rigos) (04:22)
16. Мысли Вслух (03:00)
17. Бай (02:31)-

Лог создания рипа

Exact Audio Copy V1.1 from 23. June 2015
Отчёт EAC об извлечении, выполненном 21. ноября 2016, 1:56
Guf / Ещё
Дисковод: HL-DT-STDVDRAM GP60NB60 Adapter: 1 ID: 1
Режим чтения : ДостоверностьИспользование точного потока : ДаОтключение кэша аудио : ДаИспользование указателей C2 : Нет
Коррекция смещения при чтении : 6Способность читать области Lead-in и Lead-out : НетЗаполнение пропущенных сэмплов тишиной : ДаУдаление блоков с тишиной в начале и конце : НетПри вычислениях CRC использовались нулевые сэмплы : ДаИнтерфейс : Встроенный Win32-интерфейс для Win NT/2000Обработка зазоров : Добавлено к предыдущему треку
Выходной формат : Пользовательский кодировщикВыбранный битрейт : 128 kBit/sКачество : ВысокийДобавление ID3-тега : НетУтилита сжатия : C:\Program Files\Foobar2000\encoders\refalac64.exeДополнительные параметры : -s --ignorelength --artist "%artist%" --composer "%composer%" --track "%tracknr%"/"%numtracks%" --disk "%cdnumber%"/"%totalcds%" --title "%title%" --album "%albumtitle%" --date "%year%" --genre "%genre%" %haslyrics%--lyrics "%lyricsfile%"%haslyrics% %hascover%--artwork "%coverfile%"%hascover% -o %dest% %source%
TOC извлечённого CD
Трек | Старт | Длительность | Начальный сектор | Конечный сектор --------------------------------------------------------------------- 1 | 0:00.00 | 2:36.10 | 0 | 11709 2 | 2:36.10 | 3:14.10 | 11710 | 26269 3 | 5:50.20 | 2:50.10 | 26270 | 39029 4 | 8:40.30 | 4:27.01 | 39030 | 59055 5 | 13:07.31 | 3:14.11 | 59056 | 73616 6 | 16:21.42 | 2:16.10 | 73617 | 83826 7 | 18:37.52 | 2:22.65 | 83827 | 94541 8 | 21:00.42 | 4:54.28 | 94542 | 116619 9 | 25:54.70 | 3:23.37 | 116620 | 131881 10 | 29:18.32 | 3:43.47 | 131882 | 148653 11 | 33:02.04 | 3:32.05 | 148654 | 164558 12 | 36:34.09 | 2:06.10 | 164559 | 174018 13 | 38:40.19 | 4:52.10 | 174019 | 195928 14 | 43:32.29 | 3:57.05 | 195929 | 213708 15 | 47:29.34 | 4:22.26 | 213709 | 233384 16 | 51:51.60 | 3:00.19 | 233385 | 246903 17 | 54:52.04 | 2:31.26 | 246904 | 258254
Трек 1
Имя файла H:\Музон (Loseless)\Мои Рипы\Guf - Дискография (ALAC)\(2015) Ещё\01. Хэллоу.wav
Длина предзазора 0:00:02.00
Пиковый уровень 100.0 % Скорость извлечения 2.6 X Качество трека 100.0 % CRC теста DA076EA4 CRC копии DA076EA4 Точное извлечение (достоверность 1) [919CE2C0] (AR v2) Копирование... OK
Трек 2
Имя файла H:\Музон (Loseless)\Мои Рипы\Guf - Дискография (ALAC)\(2015) Ещё\02. Маугли.wav
Длина предзазора 0:00:02.00
Пиковый уровень 100.0 % Скорость извлечения 2.9 X Качество трека 100.0 % CRC теста 53B3444F CRC копии 53B3444F Точное извлечение (достоверность 1) [ECB41C66] (AR v2) Копирование... OK
Трек 3
Имя файла H:\Музон (Loseless)\Мои Рипы\Guf - Дискография (ALAC)\(2015) Ещё\03. Выдох-Вдох.wav
Длина предзазора 0:00:02.00
Пиковый уровень 100.0 % Скорость извлечения 3.0 X Качество трека 100.0 % CRC теста D0C6B16D CRC копии D0C6B16D Точное извлечение (достоверность 1) [D518652E] (AR v2) Копирование... OK
Трек 4
Имя файла H:\Музон (Loseless)\Мои Рипы\Guf - Дискография (ALAC)\(2015) Ещё\04. Неделя.wav
Длина предзазора 0:00:02.00
Пиковый уровень 91.7 % Скорость извлечения 3.4 X Качество трека 100.0 % CRC теста 80844C7D CRC копии 80844C7D Точное извлечение (достоверность 1) [0E09CA0D] (AR v2) Копирование... OK
Трек 5
Имя файла H:\Музон (Loseless)\Мои Рипы\Guf - Дискография (ALAC)\(2015) Ещё\05. До Ста.wav
Длина предзазора 0:00:02.00
Пиковый уровень 89.8 % Скорость извлечения 3.5 X Качество трека 100.0 % CRC теста 2CB4C4A0 CRC копии 2CB4C4A0 Точное извлечение (достоверность 1) [7DD36A64] (AR v2) Копирование... OK
Трек 6
Имя файла H:\Музон (Loseless)\Мои Рипы\Guf - Дискография (ALAC)\(2015) Ещё\06. На Связи (Скит).wav
Длина предзазора 0:00:02.00
Пиковый уровень 96.0 % Скорость извлечения 2.8 X Качество трека 99.9 % CRC теста 0F6A5C35 CRC копии 0F6A5C35 Точное извлечение (достоверность 1) [DF84A5B4] (AR v2) Копирование... OK
Трек 7
Имя файла H:\Музон (Loseless)\Мои Рипы\Guf - Дискография (ALAC)\(2015) Ещё\07. Трамвай #2.wav
Длина предзазора 0:00:02.00
Пиковый уровень 91.8 % Скорость извлечения 3.6 X Качество трека 100.0 % CRC теста 0396ED5A CRC копии 0396ED5A Точное извлечение (достоверность 1) [79DC2D38] (AR v2) Копирование... OK
Трек 8
Имя файла H:\Музон (Loseless)\Мои Рипы\Guf - Дискография (ALAC)\(2015) Ещё\08. На Таран (Feat. Centr).wav
Длина предзазора 0:00:02.00
Пиковый уровень 100.0 % Скорость извлечения 4.2 X Качество трека 100.0 % CRC теста C2288ED1 CRC копии C2288ED1 Точное извлечение (достоверность 1) [EE22A0F9] (AR v2) Копирование... OK
Трек 9
Имя файла H:\Музон (Loseless)\Мои Рипы\Guf - Дискография (ALAC)\(2015) Ещё\09. Н.Г.2.wav
Длина предзазора 0:00:02.00
Пиковый уровень 89.4 % Скорость извлечения 3.6 X Качество трека 99.9 % CRC теста EA59DBD6 CRC копии EA59DBD6 Точное извлечение (достоверность 1) [3715C94A] (AR v2) Копирование... OK
Трек 10
Имя файла H:\Музон (Loseless)\Мои Рипы\Guf - Дискография (ALAC)\(2015) Ещё\10. A.C.A.B. (Feat. Princip).wav
Длина предзазора 0:00:02.00
Пиковый уровень 100.0 % Скорость извлечения 4.4 X Качество трека 100.0 % CRC теста 0AC4F1E2 CRC копии 0AC4F1E2 Точное извлечение (достоверность 1) [9D2A3D5E] (AR v2) Копирование... OK
Трек 11
Имя файла H:\Музон (Loseless)\Мои Рипы\Guf - Дискография (ALAC)\(2015) Ещё\11. На Пальме.wav
Длина предзазора 0:00:02.00
Пиковый уровень 89.4 % Скорость извлечения 4.5 X Качество трека 100.0 % CRC теста CAC45826 CRC копии CAC45826 Точное извлечение (достоверность 1) [8D7FCD31] (AR v2) Копирование... OK
Трек 12
Имя файла H:\Музон (Loseless)\Мои Рипы\Guf - Дискография (ALAC)\(2015) Ещё\12. Архив (Скит).wav
Длина предзазора 0:00:02.00
Пиковый уровень 96.0 % Скорость извлечения 3.5 X Качество трека 99.9 % CRC теста 09C0AC1D CRC копии 09C0AC1D Точное извлечение (достоверность 1) [6A92F3F5] (AR v2) Копирование... OK
Трек 13
Имя файла H:\Музон (Loseless)\Мои Рипы\Guf - Дискография (ALAC)\(2015) Ещё\13. Другой Город (Feat. Каспийский Груз).wav
Длина предзазора 0:00:02.00
Пиковый уровень 100.0 % Скорость извлечения 4.5 X Качество трека 99.9 % CRC теста CBBE797F CRC копии CBBE797F Точное извлечение (достоверность 1) [55201B46] (AR v2) Копирование... OK
Трек 14
Имя файла H:\Музон (Loseless)\Мои Рипы\Guf - Дискография (ALAC)\(2015) Ещё\14. Хочу Ещё.wav
Длина предзазора 0:00:02.00
Пиковый уровень 89.3 % Скорость извлечения 4.4 X Качество трека 99.9 % CRC теста 9DFFD0F7 CRC копии 9DFFD0F7 Точное извлечение (достоверность 1) [E26F8131] (AR v2) Копирование... OK
Трек 15
Имя файла H:\Музон (Loseless)\Мои Рипы\Guf - Дискография (ALAC)\(2015) Ещё\15. Вживую (Feat. Rigos).wav
Длина предзазора 0:00:02.00
Пиковый уровень 89.4 % Скорость извлечения 5.2 X Качество трека 100.0 % CRC теста BDB0DC2E CRC копии BDB0DC2E Точное извлечение (достоверность 1) [4254187A] (AR v2) Копирование... OK
Трек 16
Имя файла H:\Музон (Loseless)\Мои Рипы\Guf - Дискография (ALAC)\(2015) Ещё\16. Мысли Вслух.wav
Длина предзазора 0:00:02.00
Пиковый уровень 89.6 % Скорость извлечения 4.3 X Качество трека 99.9 % CRC теста 0BDF1CF2 CRC копии 0BDF1CF2 Точное извлечение (достоверность 1) [55751342] (AR v2) Копирование... OK
Трек 17
Имя файла H:\Музон (Loseless)\Мои Рипы\Guf - Дискография (ALAC)\(2015) Ещё\17. Бай.wav
Длина предзазора 0:00:02.00
Пиковый уровень 89.5 % Скорость извлечения 4.9 X Качество трека 100.0 % CRC теста C6FBDCE5 CRC копии C6FBDCE5 Точное извлечение (достоверность 1) [96E21C20] (AR v2) Копирование... OK
Все треки извлечены точно
Ошибок не произошло
Конец отчёта
---- CUETools DB Plugin V2.1.6
[CTDB TOCID: tRnE6x1nRQe6n17ARVi58YkF57M-] foundSubmit result: tRnE6x1nRQe6n17ARVi58YkF57M- has been confirmedTrack | CTDB Status 1 | (6/6) Accurately ripped 2 | (6/6) Accurately ripped 3 | (6/6) Accurately ripped 4 | (6/6) Accurately ripped 5 | (6/6) Accurately ripped 6 | (6/6) Accurately ripped 7 | (6/6) Accurately ripped 8 | (6/6) Accurately ripped 9 | (6/6) Accurately ripped 10 | (6/6) Accurately ripped 11 | (6/6) Accurately ripped 12 | (6/6) Accurately ripped 13 | (6/6) Accurately ripped 14 | (6/6) Accurately ripped 15 | (6/6) Accurately ripped 16 | (6/6) Accurately ripped 17 | (5/6) Accurately ripped
==== Контрольная сумма отчёта DC4734D25B3A52602BA37A93F616DDFE86B6597B34C272CFB6D6DCC35E16AE9B ====

Содержание индексной карты (.CUE)

REM GENRE RapREM DATE 2015REM DISCID ED0D7311REM COMMENT "ExactAudioCopy v1.1"PERFORMER "Guf"TITLE "Ещё"FILE "01. Хэллоу.wav" WAVE  TRACK 01 AUDIO    TITLE "Хэллоу"    PERFORMER "Guf"    INDEX 01 00:00:00  TRACK 02 AUDIO    TITLE "Маугли"    PERFORMER "Guf"    INDEX 00 02:34:10FILE "02. Маугли.wav" WAVE    INDEX 01 00:00:00  TRACK 03 AUDIO    TITLE "Выдох-Вдох"    PERFORMER "Guf"    INDEX 00 03:12:10FILE "03. Выдох-Вдох.wav" WAVE    INDEX 01 00:00:00  TRACK 04 AUDIO    TITLE "Неделя"    PERFORMER "Guf"    INDEX 00 02:48:10FILE "04. Неделя.wav" WAVE    INDEX 01 00:00:00  TRACK 05 AUDIO    TITLE "До Ста"    PERFORMER "Guf"    INDEX 00 04:25:01FILE "05. До Ста.wav" WAVE    INDEX 01 00:00:00  TRACK 06 AUDIO    TITLE "На Связи (Скит)"    PERFORMER "Guf"    INDEX 00 03:12:11FILE "06. На Связи (Скит).wav" WAVE    INDEX 01 00:00:00  TRACK 07 AUDIO    TITLE "Трамвай #2"    PERFORMER "Guf"    INDEX 00 02:14:10FILE "07. Трамвай #2.wav" WAVE    INDEX 01 00:00:00  TRACK 08 AUDIO    TITLE "На Таран (Feat. Centr)"    PERFORMER "Guf"    INDEX 00 02:20:65FILE "08. На Таран (Feat. Centr).wav" WAVE    INDEX 01 00:00:00  TRACK 09 AUDIO    TITLE "Н.Г.2"    PERFORMER "Guf"    INDEX 00 04:52:28FILE "09. Н.Г.2.wav" WAVE    INDEX 01 00:00:00  TRACK 10 AUDIO    TITLE "A.C.A.B. (Feat. Princip)"    PERFORMER "Guf"    INDEX 00 03:21:37FILE "10. A.C.A.B. (Feat. Princip).wav" WAVE    INDEX 01 00:00:00  TRACK 11 AUDIO    TITLE "На Пальме"    PERFORMER "Guf"    INDEX 00 03:41:47FILE "11. На Пальме.wav" WAVE    INDEX 01 00:00:00  TRACK 12 AUDIO    TITLE "Архив (Скит)"    PERFORMER "Guf"    INDEX 00 03:30:05FILE "12. Архив (Скит).wav" WAVE    INDEX 01 00:00:00  TRACK 13 AUDIO    TITLE "Другой Город (Feat. Каспийский Груз)"    PERFORMER "Guf"    INDEX 00 02:04:10FILE "13. Другой Город (Feat. Каспийский Груз).wav" WAVE    INDEX 01 00:00:00  TRACK 14 AUDIO    TITLE "Хочу Ещё"    PERFORMER "Guf"    INDEX 00 04:50:10FILE "14. Хочу Ещё.wav" WAVE    INDEX 01 00:00:00  TRACK 15 AUDIO    TITLE "Вживую (Feat. Rigos)"    PERFORMER "Guf"    INDEX 00 03:55:05FILE "15. Вживую (Feat. Rigos).wav" WAVE    INDEX 01 00:00:00  TRACK 16 AUDIO    TITLE "Мысли Вслух"    PERFORMER "Guf"    INDEX 00 04:20:26FILE "16. Мысли Вслух.wav" WAVE    INDEX 01 00:00:00  TRACK 17 AUDIO    TITLE "Бай"    PERFORMER "Guf"    INDEX 00 02:58:19FILE "17. Бай.wav" WAVE    INDEX 01 00:00:00

Лог проверки качества

-----------------------
DON'T MODIFY THIS FILE
-----------------------
PERFORMER: auCDtect Task Manager, ver. 1.6.0 RC1 build 1.6.0.1Copyright (c) 2008-2010 y-soft. All rights reservedhttp://y-soft.org
ANALYZER: auCDtect: CD records authenticity detector, version 0.8.2Copyright (c) 2004 Oleg Berngardt. All rights reserved.Copyright (c) 2004 Alexander Djourik. All rights reserved.
FILE: 01. Хэллоу.m4a Size: 15732844 Hash: E8CCC9ADA364356F6DD7A8CA5B22EC36 Accuracy: -m0 Conclusion: CDDA 99% Signature: ED2CBCB7DAA6ED1F2D8F6AC6C26C5026634D7AFEFILE: 02. Маугли.m4a Size: 21894184 Hash: 86AF8542EDFC71A5271C5023AFE1A18B Accuracy: -m0 Conclusion: CDDA 100% Signature: AC92E532E8A7F288C406B1C8D12A85B7C3041CEEFILE: 03. Выдох-Вдох.m4a Size: 17869853 Hash: 79DCFF7930932C02F7E4B78D2A9E77D8 Accuracy: -m0 Conclusion: CDDA 100% Signature: 6CDDAE861180474D7000751D3C2D68F6C35FCB3DFILE: 04. Неделя.m4a Size: 29999406 Hash: D6455E1F1F94DDA5769ED3EEEE016A66 Accuracy: -m0 Conclusion: CDDA 100% Signature: 04CCC04AFED20AAA0D37196393479A99DE0DB8B7FILE: 05. До Ста.m4a Size: 20018743 Hash: DB9654E59A2BA1832369C2392BFB3A2F Accuracy: -m0 Conclusion: CDDA 100% Signature: DFA7D998A766DF384571D35FEE14F30FF755CB7FFILE: 06. На Связи (Скит).m4a Size: 9220488 Hash: 388F5E268A0DE71B1345B98C79603B6B Accuracy: -m0 Conclusion: CDDA 100% Signature: 2A1F48293B2A17585D353DB47D09A80FC8A4512AFILE: 07. Трамвай #2.m4a Size: 14732497 Hash: D33A1DB1841C1E5FB6F6719A891EFBF0 Accuracy: -m0 Conclusion: CDDA 100% Signature: 50223E8BA7DC38F6DB6714629042395ED77E7C7BFILE: 08. На Таран (Feat. Centr).m4a Size: 31613305 Hash: F1D6B3B76CF4A4D29E45D24E7337F719 Accuracy: -m0 Conclusion: CDDA 100% Signature: 5D312B38EC21BBC2A4334A2E886E29A617E36171FILE: 09. Н.Г.2.m4a Size: 21696684 Hash: F96F47C6CB38A6F96963F17FBDBBD083 Accuracy: -m0 Conclusion: CDDA 100% Signature: D785C5BA0B53F07BB6BBD1CD2D3A657D35790E39FILE: 10. A.C.A.B. (Feat. Princip).m4a Size: 24504840 Hash: 600CDA9C5FD0E6CDC07FDD378A09C81B Accuracy: -m0 Conclusion: CDDA 100% Signature: D348AE3151586064C49EC02752B75EA35350DBD8FILE: 11. На Пальме.m4a Size: 21260561 Hash: D234977DC9C8062421B3D97733E3D733 Accuracy: -m0 Conclusion: CDDA 100% Signature: 725FB8413C8C11ECA271DF40A7A467A180C4A413FILE: 12. Архив (Скит).m4a Size: 7769868 Hash: DC64159FB524E685B45B925AECAE0CFE Accuracy: -m0 Conclusion: CDDA 100% Signature: E2B9FB1B1D7EFFE4FDB07A5898B72D320E8FBCD8FILE: 13. Другой Город (Feat. Каспийский Груз).m4a Size: 30427109 Hash: BC8F1712445D1327990778870A7C4E15 Accuracy: -m0 Conclusion: CDDA 100% Signature: C764377DBD983824418FE28FF755ADC6BFF69511FILE: 14. Хочу Ещё.m4a Size: 25219147 Hash: 2799A167DA664D08EFB05A2BEB01BB1F Accuracy: -m0 Conclusion: CDDA 100% Signature: 1CAA5EF88A457C9ACE36797A44E5097C46E0A7ACFILE: 15. Вживую (Feat. Rigos).m4a Size: 27096636 Hash: D7A800FD512DE0AABDA1A274392D8392 Accuracy: -m0 Conclusion: CDDA 100% Signature: 8C3EE235A66770B115603745809254DCF0A9CDA0FILE: 16. Мысли Вслух.m4a Size: 17479391 Hash: 836BEBA48AC8861F8202147A273926B6 Accuracy: -m0 Conclusion: CDDA 100% Signature: 79CCB710349BB99BF36E70B32D9BCB00965CDB32FILE: 17. Бай.m4a Size: 16197914 Hash: 8591C03FD3D58F9031FE13B98A7583B9 Accuracy: -m0 Conclusion: CDDA 100% Signature: 71D7F4FB1B93228C60A8E91F68078F110F37F874

Скриншот спектра частот

Об альбоме (сборнике)

«Ещё» — четвёртый сольный альбом российского рэп-исполнителя Guf'a, выпущенный 4 Ноября 2015 года.-

Дополнительная информация

-Музыка: BluntCath
Cведение: BluntCath
Мастеринг: ЦАО Records
Запись: ЦАО Records
Оформление: Scut36-

Скриншоты


-Collaborations-

(2010) Баста/Guf (Баста & Guf)

Издатель (лейбл): ООО "Газгольдер Рекорд"
Номер по каталогу: CDG 010/2010
Продолжительность: 01:07:11
- -Треклист:-01. Другая Волна (Scratch DJ Tactics) (05:04)
02. Ходим По Краю (03:40)
03. Зеркало (05:24)
04. Если Бы... (Scratch DJ Mixoid) (05:26)
05. Как Есть (05:15)
06. Китай (Scratch DJ Mixoid) (04:41)
07. Вязки (05:29)
08. Заколоченное (Scratch DJ Бэка) (04:09)
09. Соответственно (Scratch DJ Tactics) (03:58)
10. Самурай (Scratch DJ Бэка) (05:12)
11. Не Всё Потеряно Пока (Scratch DJ Tactics) (04:08)
12. ЧП (05:15)
13. Только Сегодня (05:40)
14. Личное Дело (03:49)-

Лог создания рипа

Exact Audio Copy V1.0 beta 3 from 29. August 2011
Отчёт EAC об извлечении, выполненном 1. мая 2015, 15:45
Баста И Guf / Баста/Guf
Дисковод: TSSTcorpCDDVDW SH-224BB Adapter: 0 ID: 0
Режим чтения : ДостоверностьИспользование точного потока : ДаОтключение кэша аудио : ДаИспользование указателей C2 : Нет
Коррекция смещения при чтении : 6Способность читать области Lead-in и Lead-out : НетЗаполнение пропущенных сэмплов тишиной : ДаУдаление блоков с тишиной в начале и конце : НетПри вычислениях CRC использовались нулевые сэмплы : ДаИнтерфейс : Встроенный Win32-интерфейс для Win NT/2000Обработка зазоров : Добавлено к предыдущему треку
Выходной формат : Пользовательский кодировщикВыбранный битрейт : 896 kBit/sКачество : ВысокийДобавление ID3-тега : НетУтилита сжатия : C:\Program Files\Foobar2000 zPack\encoders\refalac64.exeДополнительные параметры : -s --ignorelength --artist "%artist%" --title "%title%" --album "%albumtitle%" --date "%year%" --track "%tracknr%" --genre "%genre%" -o %dest% %source%
TOC извлечённого CD
Трек | Старт | Длительность | Начальный сектор | Конечный сектор --------------------------------------------------------------------- 1 | 0:00.00 | 5:03.41 | 0 | 22765 2 | 5:03.41 | 3:40.07 | 22766 | 39272 3 | 8:43.48 | 5:24.08 | 39273 | 63580 4 | 14:07.56 | 5:25.38 | 63581 | 87993 5 | 19:33.19 | 5:14.63 | 87994 | 111606 6 | 24:48.07 | 4:41.06 | 111607 | 132687 7 | 29:29.13 | 5:28.62 | 132688 | 157349 8 | 34:58.00 | 4:09.37 | 157350 | 176061 9 | 39:07.37 | 3:58.11 | 176062 | 193922 10 | 43:05.48 | 5:12.01 | 193923 | 217323 11 | 48:17.49 | 4:07.73 | 217324 | 235921 12 | 52:25.47 | 5:15.13 | 235922 | 259559 13 | 57:40.60 | 5:39.67 | 259560 | 285051 14 | 63:20.52 | 3:49.26 | 285052 | 302252
Трек 1
Имя файла H:\Музон (Loseless)\Мои Рипы\Guf - Дискография (ALAC)\(2010) Баста - Гуф (Баста И Guf)\01 Другая Волна (Scratch DJ Tactics).wav
Длина предзазора 0:00:02.00
Пиковый уровень 99.9 % Скорость извлечения 1.9 X Качество трека 100.0 % CRC теста 1CAF5616 CRC копии 1CAF5616 Точное извлечение (достоверность 1) [32B6C12A] (AR v2) Копирование... OK
Трек 2
Имя файла H:\Музон (Loseless)\Мои Рипы\Guf - Дискография (ALAC)\(2010) Баста - Гуф (Баста И Guf)\02 Ходим По Краю.wav
Пиковый уровень 99.9 % Скорость извлечения 1.8 X Качество трека 99.9 % CRC теста CCCC682D CRC копии CCCC682D Точное извлечение (достоверность 1) [5DEDEFE8] (AR v2) Копирование... OK
Трек 3
Имя файла H:\Музон (Loseless)\Мои Рипы\Guf - Дискография (ALAC)\(2010) Баста - Гуф (Баста И Guf)\03 Зеркало.wav
Пиковый уровень 99.9 % Скорость извлечения 2.4 X Качество трека 100.0 % CRC теста 596F6B06 CRC копии 596F6B06 Точное извлечение (достоверность 1) [5E0BC3D8] (AR v2) Копирование... OK
Трек 4
Имя файла H:\Музон (Loseless)\Мои Рипы\Guf - Дискография (ALAC)\(2010) Баста - Гуф (Баста И Guf)\04 Если Бы... (Scratch DJ Mixoid).wav
Пиковый уровень 99.9 % Скорость извлечения 2.6 X Качество трека 100.0 % CRC теста B2142E39 CRC копии B2142E39 Точное извлечение (достоверность 1) [B09BAAA9] (AR v2) Копирование... OK
Трек 5
Имя файла H:\Музон (Loseless)\Мои Рипы\Guf - Дискография (ALAC)\(2010) Баста - Гуф (Баста И Guf)\05 Как Есть.wav
Пиковый уровень 99.9 % Скорость извлечения 2.8 X Качество трека 100.0 % CRC теста C96D0239 CRC копии C96D0239 Точное извлечение (достоверность 1) [4C6DCBA9] (AR v2) Копирование... OK
Трек 6
Имя файла H:\Музон (Loseless)\Мои Рипы\Guf - Дискография (ALAC)\(2010) Баста - Гуф (Баста И Guf)\06 Китай (Scratch DJ Mixoid).wav
Пиковый уровень 99.9 % Скорость извлечения 2.9 X Качество трека 100.0 % CRC теста 1F6745F3 CRC копии 1F6745F3 Точное извлечение (достоверность 1) [F8BDCED4] (AR v2) Копирование... OK
Трек 7
Имя файла H:\Музон (Loseless)\Мои Рипы\Guf - Дискография (ALAC)\(2010) Баста - Гуф (Баста И Guf)\07 Вязки.wav
Пиковый уровень 99.9 % Скорость извлечения 3.1 X Качество трека 100.0 % CRC теста 0725F06D CRC копии 0725F06D Точное извлечение (достоверность 1) [1E0A42EA] (AR v2) Копирование... OK
Трек 8
Имя файла H:\Музон (Loseless)\Мои Рипы\Guf - Дискография (ALAC)\(2010) Баста - Гуф (Баста И Guf)\08 Заколоченное (Scratch DJ Бэка).wav
Пиковый уровень 99.9 % Скорость извлечения 3.2 X Качество трека 100.0 % CRC теста C0145F4C CRC копии C0145F4C Точное извлечение (достоверность 1) [5830DAF8] (AR v2) Копирование... OK
Трек 9
Имя файла H:\Музон (Loseless)\Мои Рипы\Guf - Дискография (ALAC)\(2010) Баста - Гуф (Баста И Guf)\09 Соответственно (Scratch DJ Tactics).wav
Пиковый уровень 99.9 % Скорость извлечения 3.3 X Качество трека 100.0 % CRC теста D643FC1D CRC копии D643FC1D Точное извлечение (достоверность 1) [8202613D] (AR v2) Копирование... OK
Трек 10
Имя файла H:\Музон (Loseless)\Мои Рипы\Guf - Дискография (ALAC)\(2010) Баста - Гуф (Баста И Guf)\10 Самурай (Scratch DJ Бэка).wav
Пиковый уровень 99.9 % Скорость извлечения 3.5 X Качество трека 100.0 % CRC теста 8B26A538 CRC копии 8B26A538 Точное извлечение (достоверность 1) [A26EA786] (AR v2) Копирование... OK
Трек 11
Имя файла H:\Музон (Loseless)\Мои Рипы\Guf - Дискография (ALAC)\(2010) Баста - Гуф (Баста И Guf)\11 Не Всё Потеряно Пока (Scratch DJ Tactics).wav
Пиковый уровень 99.9 % Скорость извлечения 3.1 X Качество трека 99.9 % CRC теста FA61A5C0 CRC копии FA61A5C0 Точное извлечение (достоверность 1) [A539CAE8] (AR v2) Копирование... OK
Трек 12
Имя файла H:\Музон (Loseless)\Мои Рипы\Guf - Дискография (ALAC)\(2010) Баста - Гуф (Баста И Guf)\12 ЧП.wav
Пиковый уровень 100.0 % Скорость извлечения 3.8 X Качество трека 100.0 % CRC теста 58C75337 CRC копии 58C75337 Точное извлечение (достоверность 1) [6BEF8533] (AR v2) Копирование... OK
Трек 13
Имя файла H:\Музон (Loseless)\Мои Рипы\Guf - Дискография (ALAC)\(2010) Баста - Гуф (Баста И Guf)\13 Только Сегодня.wav
Пиковый уровень 99.9 % Скорость извлечения 3.9 X Качество трека 100.0 % CRC теста 9BF9AE67 CRC копии 9BF9AE67 Точное извлечение (достоверность 1) [2DC849E1] (AR v2) Копирование... OK
Трек 14
Имя файла H:\Музон (Loseless)\Мои Рипы\Guf - Дискография (ALAC)\(2010) Баста - Гуф (Баста И Guf)\14 Личное Дело.wav
Пиковый уровень 100.0 % Скорость извлечения 3.8 X Качество трека 100.0 % CRC теста 87CEE4BF CRC копии 87CEE4BF Точное извлечение (достоверность 1) [2CC8B3A7] (AR v2) Копирование... OK
Все треки извлечены точно
Ошибок не произошло
Конец отчёта
==== Контрольная сумма отчёта B940EAFAE86CC86AF80D1A2639191797F06DC456DD806423DD76585A1EE6E04C ====

Содержание индексной карты (.CUE)

REM GENRE RapREM DATE 2010REM DISCID C90FBE0EREM COMMENT "ExactAudioCopy v1.0b3"PERFORMER "Баста И Guf"TITLE "Баста/Guf"FILE "01 Другая Волна (Scratch DJ Tactics).wav" WAVE  TRACK 01 AUDIO    TITLE "Другая Волна (Scratch DJ Tactics)"    PERFORMER "Баста И Guf"    INDEX 01 00:00:00FILE "02 Ходим По Краю.wav" WAVE  TRACK 02 AUDIO    TITLE "Ходим По Краю"    PERFORMER "Баста И Guf"    INDEX 01 00:00:00FILE "03 Зеркало.wav" WAVE  TRACK 03 AUDIO    TITLE "Зеркало"    PERFORMER "Баста И Guf"    INDEX 01 00:00:00FILE "04 Если Бы... (Scratch DJ Mixoid).wav" WAVE  TRACK 04 AUDIO    TITLE "Если Бы... (Scratch DJ Mixoid)"    PERFORMER "Баста И Guf"    INDEX 01 00:00:00FILE "05 Как Есть.wav" WAVE  TRACK 05 AUDIO    TITLE "Как Есть"    PERFORMER "Баста И Guf"    INDEX 01 00:00:00FILE "06 Китай (Scratch DJ Mixoid).wav" WAVE  TRACK 06 AUDIO    TITLE "Китай (Scratch DJ Mixoid)"    PERFORMER "Баста И Guf"    INDEX 01 00:00:00FILE "07 Вязки.wav" WAVE  TRACK 07 AUDIO    TITLE "Вязки"    PERFORMER "Баста И Guf"    INDEX 01 00:00:00FILE "08 Заколоченное (Scratch DJ Бэка).wav" WAVE  TRACK 08 AUDIO    TITLE "Заколоченное (Scratch DJ Бэка)"    PERFORMER "Баста И Guf"    INDEX 01 00:00:00FILE "09 Соответственно (Scratch DJ Tactics).wav" WAVE  TRACK 09 AUDIO    TITLE "Соответственно (Scratch DJ Tactics)"    PERFORMER "Баста И Guf"    INDEX 01 00:00:00FILE "10 Самурай (Scratch DJ Бэка).wav" WAVE  TRACK 10 AUDIO    TITLE "Самурай (Scratch DJ Бэка)"    PERFORMER "Баста И Guf"    INDEX 01 00:00:00FILE "11 Не Всё Потеряно Пока (Scratch DJ Tactics).wav" WAVE  TRACK 11 AUDIO    TITLE "Не Всё Потеряно Пока (Scratch DJ Tactics)"    PERFORMER "Баста И Guf"    INDEX 01 00:00:00FILE "12 ЧП.wav" WAVE  TRACK 12 AUDIO    TITLE "ЧП"    PERFORMER "Баста И Guf"    INDEX 01 00:00:00FILE "13 Только Сегодня.wav" WAVE  TRACK 13 AUDIO    TITLE "Только Сегодня"    PERFORMER "Баста И Guf"    INDEX 01 00:00:00FILE "14 Личное Дело.wav" WAVE  TRACK 14 AUDIO    TITLE "Личное Дело"    PERFORMER "Баста И Guf"    INDEX 01 00:00:00

Лог проверки качества

-----------------------
DON'T MODIFY THIS FILE
-----------------------
PERFORMER: auCDtect Task Manager, ver. 1.6.0 RC1 build 1.6.0.1Copyright (c) 2008-2010 y-soft. All rights reservedhttp://y-soft.org
ANALYZER: auCDtect: CD records authenticity detector, version 0.8.2Copyright (c) 2004 Oleg Berngardt. All rights reserved.Copyright (c) 2004 Alexander Djourik. All rights reserved.
FILE: 01 Другая Волна (Scratch DJ Tactics).m4a Size: 30622952 Hash: 4E67E5CD5851FA1CA72B09FB3D8AC33A Accuracy: -m0 Conclusion: CDDA 100% Signature: DAE8F3BCF80286E0C7BB1626302CA3B7A3CAB354FILE: 02 Ходим По Краю.m4a Size: 21274631 Hash: 913F856E5FCADAA706957FB2278624BC Accuracy: -m0 Conclusion: CDDA 99% Signature: FFC2E3CD371289E83602A87B49D9B670DF3667AAFILE: 03 Зеркало.m4a Size: 33859460 Hash: D59EE079F184085D969E553DDA1E899D Accuracy: -m0 Conclusion: CDDA 100% Signature: 75E230A7FF6E25C2E2067455F75E722AC7BA0BAFFILE: 04 Если Бы... (Scratch DJ Mixoid).m4a Size: 35556055 Hash: 0BC9CC7CB576368A0E8B31FB08199EED Accuracy: -m0 Conclusion: CDDA 100% Signature: 3942E4082C8C3BE8FD075CCA6149778F7686E960FILE: 05 Как Есть.m4a Size: 28499008 Hash: BE94B2B303AA6E994D19A1ADFA85BD32 Accuracy: -m0 Conclusion: CDDA 100% Signature: CE7781CADBAA93EE56F363B8704CDF533A7042E1FILE: 06 Китай (Scratch DJ Mixoid).m4a Size: 27879539 Hash: 75B6DF5A835F4098CDD7075ED8C1AE1A Accuracy: -m0 Conclusion: CDDA 100% Signature: C987990EF086B1BC17B7DE2D5B3CD66983E22D0BFILE: 07 Вязки.m4a Size: 35794145 Hash: 183A1CAF1AE94447101CA840C5BCC2BA Accuracy: -m0 Conclusion: CDDA 100% Signature: 4843BB2432544F897BD7A8475E9768FE1A93485BFILE: 08 Заколоченное (Scratch DJ Бэка).m4a Size: 27973441 Hash: 7BBE35094F3FA6E77E2C75867417D85E Accuracy: -m0 Conclusion: CDDA 100% Signature: D9F57230B8AB6E7D47321833B782F302E4E43F6AFILE: 09 Соответственно (Scratch DJ Tactics).m4a Size: 27263898 Hash: D4C0373FD219BC5648C13FDBD9003B79 Accuracy: -m0 Conclusion: CDDA 100% Signature: B13B0514A643E42F33701684746BBFE40D1B15D5FILE: 10 Самурай (Scratch DJ Бэка).m4a Size: 34016847 Hash: D4B4F8809C47DB63C7C5FFD1DF269C18 Accuracy: -m0 Conclusion: CDDA 100% Signature: 747568A2115F99A7B384E9CCB669CAB911CCECBAFILE: 11 Не Всё Потеряно Пока (Scratch DJ Tactics).m4a Size: 25782699 Hash: 97616A650F13ACF6AEB62A74CCF0F7FA Accuracy: -m0 Conclusion: CDDA 100% Signature: 1A1C967466BFA5B3D8941BA7717206F1C09B3CFCFILE: 12 ЧП.m4a Size: 33972137 Hash: E44EF20FC3FDE0DA923A3B4D0E0A3911 Accuracy: -m0 Conclusion: CDDA 100% Signature: A4520093FDC67B50C90563CB39113577879A8FA0FILE: 13 Только Сегодня.m4a Size: 35447843 Hash: 8C364D9ABF293EA89EEA857373CD95CF Accuracy: -m0 Conclusion: CDDA 100% Signature: 38F1B210B932B8B57BE98170DECE3E008882D605FILE: 14 Личное Дело.m4a Size: 23885229 Hash: 8FB48597ED29D7D2548FFB923EEA715D Accuracy: -m0 Conclusion: CDDA 100% Signature: 7DFD5BB634BCB89BDF0F744E2BD91CC914D6F369

Скриншот спектра частот

Об альбоме (сборнике)

«Баста/Гуф» — совместный альбом Басты и Guf’а, вышедший в ноябре 2010 года. Результатом их совместной работы в этом году стала пластинка фактически без названия, в сером буклете.

Скриншоты


(2014) 4:20 (Guf & Rigos)

Издатель (лейбл): ЗАО "С.Б.А. Мьюзик Паблишинг"
Номер по каталогу: GL10827
Продолжительность: 00:48:05
- -Треклист:-01. Вдох (01:10)
Музыка: BluntCath
02. Не Тайна (03:43)
Музыка: BluntCath
03. Пали ЖК (03:16)
Музыка: Black Jacket
04. Паразит (03:54)
Музыка: BluntCath
05. Путь Далёк (04:11)
Музыка: Black Jacket
06. Низкий Профиль (03:50)
Музыка: BluntCath
07. Ренегат (Feat. Брутто) (04:44)
Музыка: BluntCath
08. Запропастились (04:06)
Музыка: BluntCath
09. Безвылазно (03:06)
Музыка: George Soul
10. Климат Суров (03:20)
Музыка: BluntCath
11. Индустрия (03:14)
Музыка: BluntCath
12. Стало Так (04:15)
Музыка: BluntCath
13. Без Если Или Либо (04:06)
Музыка: BluntCath
14. Индустрия (01:09)
Музыка: BluntCath-

Лог создания рипа

Exact Audio Copy V1.0 beta 3 from 29. August 2011
Отчёт EAC об извлечении, выполненном 18. июля 2015, 12:38
Guf & Rigos / 4:20
Дисковод: TSSTcorpCDDVDW SH-224BB Adapter: 0 ID: 0
Режим чтения : ДостоверностьИспользование точного потока : ДаОтключение кэша аудио : ДаИспользование указателей C2 : Нет
Коррекция смещения при чтении : 6Способность читать области Lead-in и Lead-out : НетЗаполнение пропущенных сэмплов тишиной : ДаУдаление блоков с тишиной в начале и конце : НетПри вычислениях CRC использовались нулевые сэмплы : ДаИнтерфейс : Встроенный Win32-интерфейс для Win NT/2000Обработка зазоров : Добавлено к предыдущему треку
Выходной формат : Пользовательский кодировщикВыбранный битрейт : 896 kBit/sКачество : ВысокийДобавление ID3-тега : НетУтилита сжатия : C:\Program Files\Foobar2000 zPack\encoders\refalac64.exeДополнительные параметры : -s --ignorelength --artist "%artist%" --title "%title%" --album "%albumtitle%" --date "%year%" --track "%tracknr%" --genre "%genre%" -o %dest% %source%
TOC извлечённого CD
Трек | Старт | Длительность | Начальный сектор | Конечный сектор --------------------------------------------------------------------- 1 | 0:00.00 | 1:10.00 | 0 | 5249 2 | 1:10.00 | 3:43.22 | 5250 | 21996 3 | 4:53.22 | 3:16.00 | 21997 | 36696 4 | 8:09.22 | 3:54.00 | 36697 | 54246 5 | 12:03.22 | 4:11.26 | 54247 | 73097 6 | 16:14.48 | 3:49.39 | 73098 | 90311 7 | 20:04.12 | 4:44.00 | 90312 | 111611 8 | 24:48.12 | 4:06.00 | 111612 | 130061 9 | 28:54.12 | 3:06.00 | 130062 | 144011 10 | 32:00.12 | 3:20.00 | 144012 | 159011 11 | 35:20.12 | 3:14.00 | 159012 | 173561 12 | 38:34.12 | 4:15.11 | 173562 | 192697 13 | 42:49.23 | 4:06.00 | 192698 | 211147 14 | 46:55.23 | 1:08.56 | 211148 | 216303
Трек 1
Имя файла H:\Музон (Loseless)\Мои Рипы\Guf - Дискография (ALAC)\(2014) 4-20 (Guf & Rigos)\01 Вдох.wav
Длина предзазора 0:00:02.00
Пиковый уровень 73.3 % Скорость извлечения 3.3 X Качество трека 100.0 % CRC теста 6F05C7DE CRC копии 6F05C7DE Точное извлечение (достоверность 1) [D89AF836] (AR v2) Копирование... OK
Трек 2
Имя файла H:\Музон (Loseless)\Мои Рипы\Guf - Дискография (ALAC)\(2014) 4-20 (Guf & Rigos)\02 Не Тайна.wav
Длина предзазора 0:00:02.00
Пиковый уровень 74.2 % Скорость извлечения 4.7 X Качество трека 100.0 % CRC теста D04788C1 CRC копии D04788C1 Точное извлечение (достоверность 1) [13E1103F] (AR v2) Копирование... OK
Трек 3
Имя файла H:\Музон (Loseless)\Мои Рипы\Guf - Дискография (ALAC)\(2014) 4-20 (Guf & Rigos)\03 Пали ЖК.wav
Длина предзазора 0:00:02.00
Пиковый уровень 74.2 % Скорость извлечения 4.9 X Качество трека 100.0 % CRC теста FCEA5B90 CRC копии FCEA5B90 Точное извлечение (достоверность 1) [9617BC01] (AR v2) Копирование... OK
Трек 4
Имя файла H:\Музон (Loseless)\Мои Рипы\Guf - Дискография (ALAC)\(2014) 4-20 (Guf & Rigos)\04 Паразит.wav
Длина предзазора 0:00:02.00
Пиковый уровень 74.2 % Скорость извлечения 5.4 X Качество трека 100.0 % CRC теста 6CE5FF14 CRC копии 6CE5FF14 Точное извлечение (достоверность 1) [5250E0EF] (AR v2) Копирование... OK
Трек 5
Имя файла H:\Музон (Loseless)\Мои Рипы\Guf - Дискография (ALAC)\(2014) 4-20 (Guf & Rigos)\05 Путь Далёк.wav
Длина предзазора 0:00:02.00
Пиковый уровень 74.2 % Скорость извлечения 5.2 X Качество трека 99.9 % CRC теста BB6516A3 CRC копии BB6516A3 Точное извлечение (достоверность 1) [81CAB55B] (AR v2) Копирование... OK
Трек 6
Имя файла H:\Музон (Loseless)\Мои Рипы\Guf - Дискография (ALAC)\(2014) 4-20 (Guf & Rigos)\06 Низкий Профиль.wav
Длина предзазора 0:00:02.00
Пиковый уровень 74.2 % Скорость извлечения 6.2 X Качество трека 100.0 % CRC теста DE9089ED CRC копии DE9089ED Точное извлечение (достоверность 1) [B03E5659] (AR v2) Копирование... OK
Трек 7
Имя файла H:\Музон (Loseless)\Мои Рипы\Guf - Дискография (ALAC)\(2014) 4-20 (Guf & Rigos)\07 Ренегат (Feat. Брутто (Каспийский Груз)).wav
Длина предзазора 0:00:02.00
Пиковый уровень 74.2 % Скорость извлечения 6.7 X Качество трека 100.0 % CRC теста CBAD89F2 CRC копии CBAD89F2 Точное извлечение (достоверность 1) [DB29CFCE] (AR v2) Копирование... OK
Трек 8
Имя файла H:\Музон (Loseless)\Мои Рипы\Guf - Дискография (ALAC)\(2014) 4-20 (Guf & Rigos)\08 Запропастились.wav
Длина предзазора 0:00:02.00
Пиковый уровень 74.2 % Скорость извлечения 6.2 X Качество трека 99.9 % CRC теста 384005B4 CRC копии 384005B4 Точное извлечение (достоверность 1) [6F677EC3] (AR v2) Копирование... OK
Трек 9
Имя файла H:\Музон (Loseless)\Мои Рипы\Guf - Дискография (ALAC)\(2014) 4-20 (Guf & Rigos)\09 Безвылазно.wav
Длина предзазора 0:00:02.00
Пиковый уровень 73.3 % Скорость извлечения 7.0 X Качество трека 100.0 % CRC теста 051BC307 CRC копии 051BC307 Точное извлечение (достоверность 1) [51C6C24D] (AR v2) Копирование... OK
Трек 10
Имя файла H:\Музон (Loseless)\Мои Рипы\Guf - Дискография (ALAC)\(2014) 4-20 (Guf & Rigos)\10 Климат Суров.wav
Длина предзазора 0:00:02.00
Пиковый уровень 74.2 % Скорость извлечения 7.2 X Качество трека 100.0 % CRC теста 61D0E33C CRC копии 61D0E33C Точное извлечение (достоверность 1) [A1D682CC] (AR v2) Копирование... OK
Трек 11
Имя файла H:\Музон (Loseless)\Мои Рипы\Guf - Дискография (ALAC)\(2014) 4-20 (Guf & Rigos)\11 Индустрия.wav
Длина предзазора 0:00:02.00
Пиковый уровень 72.5 % Скорость извлечения 7.3 X Качество трека 100.0 % CRC теста 07B4DEE2 CRC копии 07B4DEE2 Точное извлечение (достоверность 1) [2ACA997A] (AR v2) Копирование... OK
Трек 12
Имя файла H:\Музон (Loseless)\Мои Рипы\Guf - Дискография (ALAC)\(2014) 4-20 (Guf & Rigos)\12 Стало Так.wav
Длина предзазора 0:00:02.00
Пиковый уровень 73.3 % Скорость извлечения 7.9 X Качество трека 100.0 % CRC теста C5EA65B7 CRC копии C5EA65B7 Точное извлечение (достоверность 1) [951FCEC3] (AR v2) Копирование... OK
Трек 13
Имя файла H:\Музон (Loseless)\Мои Рипы\Guf - Дискография (ALAC)\(2014) 4-20 (Guf & Rigos)\13 Без Если Или Либо.wav
Длина предзазора 0:00:02.00
Пиковый уровень 74.2 % Скорость извлечения 7.2 X Качество трека 99.9 % CRC теста DE432870 CRC копии DE432870 Точное извлечение (достоверность 1) [3895B6E7] (AR v2) Копирование... OK
Трек 14
Имя файла H:\Музон (Loseless)\Мои Рипы\Guf - Дискография (ALAC)\(2014) 4-20 (Guf & Rigos)\14 Выдох.wav
Длина предзазора 0:00:02.00
Пиковый уровень 74.2 % Скорость извлечения 4.5 X Качество трека 99.8 % CRC теста C6703123 CRC копии C6703123 Точное извлечение (достоверность 1) [212200A1] (AR v2) Копирование... OK
Все треки извлечены точно
Ошибок не произошло
Конец отчёта
==== Контрольная сумма отчёта BB0BDA6B7A3E839CAE4E70AAB1109D1A7FB410D5CC4E73992B7651FCF6FE6F1C ====

Содержание индексной карты (.CUE)

REM GENRE RapREM DATE 2014REM DISCID B70B440EREM COMMENT "ExactAudioCopy v1.0b3"PERFORMER "Guf & Rigos"TITLE "4:20"FILE "01 Вдох.wav" WAVE  TRACK 01 AUDIO    TITLE "Вдох"    PERFORMER "Guf & Rigos"    INDEX 01 00:00:00  TRACK 02 AUDIO    TITLE "Не Тайна"    PERFORMER "Guf & Rigos"    INDEX 00 01:08:00FILE "02 Не Тайна.wav" WAVE    INDEX 01 00:00:00  TRACK 03 AUDIO    TITLE "Пали ЖК"    PERFORMER "Guf & Rigos"    INDEX 00 03:41:22FILE "03 Пали ЖК.wav" WAVE    INDEX 01 00:00:00  TRACK 04 AUDIO    TITLE "Паразит"    PERFORMER "Guf & Rigos"    INDEX 00 03:14:00FILE "04 Паразит.wav" WAVE    INDEX 01 00:00:00  TRACK 05 AUDIO    TITLE "Путь Далёк"    PERFORMER "Guf & Rigos"    INDEX 00 03:52:00FILE "05 Путь Далёк.wav" WAVE    INDEX 01 00:00:00  TRACK 06 AUDIO    TITLE "Низкий Профиль"    PERFORMER "Guf & Rigos"    INDEX 00 04:09:26FILE "06 Низкий Профиль.wav" WAVE    INDEX 01 00:00:00  TRACK 07 AUDIO    TITLE "Ренегат (Feat. Брутто (Каспийский Груз))"    PERFORMER "Guf & Rigos"    INDEX 00 03:47:39FILE "07 Ренегат (Feat. Брутто (Каспийский Груз)).wav" WAVE    INDEX 01 00:00:00  TRACK 08 AUDIO    TITLE "Запропастились"    PERFORMER "Guf & Rigos"    INDEX 00 04:42:00FILE "08 Запропастились.wav" WAVE    INDEX 01 00:00:00  TRACK 09 AUDIO    TITLE "Безвылазно"    PERFORMER "Guf & Rigos"    INDEX 00 04:04:00FILE "09 Безвылазно.wav" WAVE    INDEX 01 00:00:00  TRACK 10 AUDIO    TITLE "Климат Суров"    PERFORMER "Guf & Rigos"    INDEX 00 03:04:00FILE "10 Климат Суров.wav" WAVE    INDEX 01 00:00:00  TRACK 11 AUDIO    TITLE "Индустрия"    PERFORMER "Guf & Rigos"    INDEX 00 03:18:00FILE "11 Индустрия.wav" WAVE    INDEX 01 00:00:00  TRACK 12 AUDIO    TITLE "Стало Так"    PERFORMER "Guf & Rigos"    INDEX 00 03:12:00FILE "12 Стало Так.wav" WAVE    INDEX 01 00:00:00  TRACK 13 AUDIO    TITLE "Без Если Или Либо"    PERFORMER "Guf & Rigos"    INDEX 00 04:13:11FILE "13 Без Если Или Либо.wav" WAVE    INDEX 01 00:00:00  TRACK 14 AUDIO    TITLE "Выдох"    PERFORMER "Guf & Rigos"    INDEX 00 04:04:00FILE "14 Выдох.wav" WAVE    INDEX 01 00:00:00

Лог проверки качества

-----------------------
DON'T MODIFY THIS FILE
-----------------------
PERFORMER: auCDtect Task Manager, ver. 1.6.0 RC1 build 1.6.0.1Copyright (c) 2008-2010 y-soft. All rights reservedhttp://y-soft.org
ANALYZER: auCDtect: CD records authenticity detector, version 0.8.2Copyright (c) 2004 Oleg Berngardt. All rights reserved.Copyright (c) 2004 Alexander Djourik. All rights reserved.
FILE: 01 Вдох.m4a Size: 6367312 Hash: 64DFE67C83359C221F2E98C17BC0D9B5 Accuracy: -m0 Conclusion: CDDA 94% Signature: D77E80C3ABC633C7B1F4BF3DB78B79DAC1B3329AFILE: 02 Не Тайна.m4a Size: 24856154 Hash: 030D5ED30A1D457BDF4E6CBDE9E20068 Accuracy: -m0 Conclusion: CDDA 100% Signature: B857E09081221293037E188385B523765DD9E429FILE: 03 Пали ЖК.m4a Size: 21414619 Hash: 1375B787DCCA7CEF0E5BF7A1A05FCABC Accuracy: -m0 Conclusion: CDDA 100% Signature: 010BCDA1150C0D3384E97F86325B16907D8F62FDFILE: 04 Паразит.m4a Size: 12611039 Hash: 7A1137994D47F57AF8B4A421ACBCEDD7 Accuracy: -m0 Conclusion: MPEG 95% Signature: 855F1735BD7890A9F42831C066EEDBE5135B170CFILE: 05 Путь Далёк.m4a Size: 30841759 Hash: 8A5CB949B42769C39D968EA536335755 Accuracy: -m0 Conclusion: CDDA 99% Signature: C1609EB27F1E0A5EC9E24C3C7E74B0D8FB01C947FILE: 06 Низкий Профиль.m4a Size: 21121120 Hash: 6B51A5BBA37B0589C1921F11CB621CAD Accuracy: -m0 Conclusion: CDDA 100% Signature: F8DF9C6CBA9C42094DACE6A01AF74C0306AC2993FILE: 07 Ренегат (Feat. Брутто (Каспийский Груз)).m4a Size: 32904486 Hash: 74224D05ACEF588C4D377F95ABE70652 Accuracy: -m0 Conclusion: MPEG 95% Signature: F6AC70C01778C24EEB9138976B4E28A794B8302BFILE: 08 Запропастились.m4a Size: 27691287 Hash: FFF287CF9BECB79BE3BAE6D936DB04F8 Accuracy: -m0 Conclusion: CDDA 100% Signature: F600D0E80D77CA43CE8B6C147331AE6D8AB2A62CFILE: 09 Безвылазно.m4a Size: 15054222 Hash: 80880CD570F511CAE0927F9668403AF7 Accuracy: -m0 Conclusion: CDDA 100% Signature: 558604DF1A27D0A80B5194FED3A694AC58F1F8AEFILE: 10 Климат Суров.m4a Size: 20194396 Hash: A30E53F56B04CEB10941E47A1C83B796 Accuracy: -m0 Conclusion: CDDA 100% Signature: ECC129D041DB98ACEE96EBE566C2A1E95B0AB08EFILE: 11 Индустрия.m4a Size: 17304804 Hash: A71360D3DC51DC4889E02CDA8F214D09 Accuracy: -m0 Conclusion: MPEG 95% Signature: 2C4E6FEC1B822E5B013D30EFF95162C36D7E45B6FILE: 12 Стало Так.m4a Size: 24133085 Hash: 8F0402EA8AF0A54B46EEEC6E7673D711 Accuracy: -m0 Conclusion: CDDA 100% Signature: 83A915A6620A71CD4D734BD1CA40CDD75F72AE44FILE: 13 Без Если Или Либо.m4a Size: 27892309 Hash: 2AC602F7DEA9553BCC4D50201F728A25 Accuracy: -m0 Conclusion: CDDA 100% Signature: 110E10D2E505509BB0F1DF818DC31C858E64FCC7FILE: 14 Выдох.m4a Size: 6378811 Hash: 84D4BC3F858A0CBCFC55EE0FF18826D4 Accuracy: -m0 Conclusion: MPEG 95% Signature: 560A4E28A2FAA042346DCC8BEB71080AFFE21649

Скриншот спектра частот

Об альбоме (сборнике)

4:20 — совместный альбом российского рэп-исполнителя Guf'а и участника дансхолл объединения True Jamaican Crew Rigos’а. Вышел 9 сентября 2014 года, незадолго до приуроченной к выходу автограф-сессии, где можно было приобрести CD с копиями материала. Альбом вышел на первую строчку по всем альбомам продаж iTunes.-

Дополнительная информация

-Оформление: Scut36

Скриншоты



-

Обновление 21.11.2016

Добавлен альбом "Ещё" и заменён рип альбома "Дома" на собственный.



Ви не можете починати теми
Ви не можете відповідати на повідомлення
Ви не можете редагувати свої повідомлення
Ви не можете видаляти свої повідомлення
Ви не можете голосувати в опитуваннях
Ви не можете прикріплювати файли до повідомлень
Ви можете скачувати файли