(Hard Bop) [CD] Dexter Gordon - Dexter Calling... - 1961 (1987), FLAC (tracks+.cue), lossless


Статистика роздачі [Оновити пиров]
Розмір:  282 MB   |    Зареєстрований:  2 місяця 8 днів   |    Скачано:  0 раз

Повного джерела не було: Ніколи

by Паночка ®
12-Січ-2019 21:40


(Hard Bop) [CD] Dexter Gordon - Dexter Calling... - 1961 (1987), FLAC (tracks+.cue), lossless

Dexter Gordon - Dexter Calling...
Жанр: Hard Bop
Носитель: CD
Страна-производитель диска (релиза): США
Год издания: 1987
Издатель (лейбл): Blue Note
Номер по каталогу: CDP 7 46544 2
Аудиокодек: FLAC (*.flac)
Тип рипа: tracks+.cue
Битрейт аудио: lossless
Продолжительность: 00:43:13
Источник (релизер): rogueofmv
Наличие сканов в содержимом раздачи: сетевые
Треклист:
01. Soul Sister (Gordon) - 7:45
02. Modal Mood (Drew) - 5:24
03. I Want More (Gordon) - 5:20
04. End of a Love Affair (Redding) - 6:54
05. Clear the Dex (Drew) - 4:55
06. Ernie's Tune (Gordon) - 4:17
07. Smile (Chaplin-Turner-Parsons) - 3:23
08. Landslide (Gordon) - 5:15
Состав:
Dexter Gordon - tenor saxophone
Kenny Drew - piano
Paul Chambers - bass
Philly Joe Jones - drums
Recorded at Van Gelder Studio, Englewood Cliffs, NJ on May 9, 1961.
Digital Transfer by Ron McMaster.

Лог создания рипа

Exact Audio Copy V1.3 from 2. September 2016
EAC extraction logfile from 1. September 2018, 19:16
Dexter Gordon / Dexter Calling...
Used drive : HL-DT-STBD-RE WH14NS40 Adapter: 1 ID: 0
Read mode : SecureUtilize accurate stream : YesDefeat audio cache : YesMake use of C2 pointers : No
Read offset correction : 6Overread into Lead-In and Lead-Out : NoFill up missing offset samples with silence : YesDelete leading and trailing silent blocks : NoNull samples used in CRC calculations : YesUsed interface : Native Win32 interface for Win NT & 2000Gap handling : Appended to previous track
Used output format : User Defined EncoderSelected bitrate : 1024 kBit/sQuality : HighAdd ID3 tag : NoCommand line compressor : C:\Program Files (x86)\Exact Audio Copy\Flac\flac.exeAdditional command line options : -8 -e -p -V -T "ARTIST=%artist%" -T "TITLE=%title%" -T "ALBUM=%albumtitle%" -T "DATE=%year%" -T "TRACKNUMBER=%tracknr%" -T "GENRE=%genre%" -T "PERFORMER=%albuminterpret%" -T "COMPOSER=%composer%" %haslyrics%--tag-from-file=LYRICS="%lyricsfile%"%haslyrics% -T "ALBUMARTIST=%albumartist%" -T "DISCNUMBER=%cdnumber%" -T "TOTALDISCS=%totalcds%" -T "TOTALTRACKS=%numtracks%" -T "COMMENT=%comment%" %source% -o %dest%
TOC of the extracted CD
Track | Start | Length | Start sector | End sector --------------------------------------------------------- 1 | 0:00.00 | 7:44.62 | 0 | 34861 2 | 7:44.62 | 5:24.03 | 34862 | 59164 3 | 13:08.65 | 5:19.45 | 59165 | 83134 4 | 18:28.35 | 6:54.10 | 83135 | 114194 5 | 25:22.45 | 4:54.45 | 114195 | 136289 6 | 30:17.15 | 4:16.45 | 136290 | 155534 7 | 34:33.60 | 3:23.00 | 155535 | 170759 8 | 37:56.60 | 5:14.70 | 170760 | 194379
Track 1
Filename C:\rips\Dexter Gordon - Dexter Calling... (1987) [FLAC] {CDP 7 46544 2}\01 - Soul Sister.wav
Pre-gap length 0:00:02.00
Peak level 94.2 % Extraction speed 4.9 X Track quality 100.0 % Test CRC AFB3C250 Copy CRC AFB3C250 Accurately ripped (confidence 1) [FA1FD5C0] (AR v1) Copy OK
Track 2
Filename C:\rips\Dexter Gordon - Dexter Calling... (1987) [FLAC] {CDP 7 46544 2}\02 - Modal Mood.wav
Pre-gap length 0:00:01.93
Peak level 99.5 % Extraction speed 4.7 X Track quality 99.9 % Test CRC 09FEA51F Copy CRC 09FEA51F Accurately ripped (confidence 1) [5EF01D53] (AR v1) Copy OK
Track 3
Filename C:\rips\Dexter Gordon - Dexter Calling... (1987) [FLAC] {CDP 7 46544 2}\03 - I Want More.wav
Pre-gap length 0:00:01.64
Peak level 100.0 % Extraction speed 6.0 X Track quality 100.0 % Test CRC 93B9839A Copy CRC 93B9839A Accurately ripped (confidence 1) [7B3B7FCF] (AR v1) Copy OK
Track 4
Filename C:\rips\Dexter Gordon - Dexter Calling... (1987) [FLAC] {CDP 7 46544 2}\04 - End of a Love Affair.wav
Pre-gap length 0:00:01.40
Peak level 99.0 % Extraction speed 6.7 X Track quality 100.0 % Test CRC 210223C6 Copy CRC 210223C6 Accurately ripped (confidence 1) [6D0A75AA] (AR v1) Copy OK
Track 5
Filename C:\rips\Dexter Gordon - Dexter Calling... (1987) [FLAC] {CDP 7 46544 2}\05 - Clear the Dex.wav
Pre-gap length 0:00:01.30
Peak level 92.7 % Extraction speed 6.9 X Track quality 100.0 % Test CRC DD4152AF Copy CRC DD4152AF Accurately ripped (confidence 1) [F80B2535] (AR v1) Copy OK
Track 6
Filename C:\rips\Dexter Gordon - Dexter Calling... (1987) [FLAC] {CDP 7 46544 2}\06 - Ernie's Tune.wav
Pre-gap length 0:00:02.04
Peak level 87.4 % Extraction speed 6.1 X Track quality 99.9 % Test CRC 94ED3931 Copy CRC 94ED3931 Accurately ripped (confidence 1) [DE69575F] (AR v1) Copy OK
Track 7
Filename C:\rips\Dexter Gordon - Dexter Calling... (1987) [FLAC] {CDP 7 46544 2}\07 - Smile.wav
Pre-gap length 0:00:01.40
Peak level 89.8 % Extraction speed 7.2 X Track quality 100.0 % Test CRC 24361721 Copy CRC 24361721 Accurately ripped (confidence 1) [2F1682DD] (AR v1) Copy OK
Track 8
Filename C:\rips\Dexter Gordon - Dexter Calling... (1987) [FLAC] {CDP 7 46544 2}\08 - Landslide.wav
Pre-gap length 0:00:01.46
Peak level 99.3 % Extraction speed 7.8 X Track quality 100.0 % Test CRC 39D38DCA Copy CRC 39D38DCA Accurately ripped (confidence 1) [56301241] (AR v1) Copy OK
All tracks accurately ripped
No errors occurred
End of status report
---- CUETools DB Plugin V2.1.6
[CTDB TOCID: Xe1ZmzCVyPF4YuXebFTKL59JYAQ-] foundSubmit result: Xe1ZmzCVyPF4YuXebFTKL59JYAQ- has been confirmedTrack | CTDB Status 1 | (3/3) Accurately ripped 2 | (3/3) Accurately ripped 3 | (3/3) Accurately ripped 4 | (3/3) Accurately ripped 5 | (3/3) Accurately ripped 6 | (3/3) Accurately ripped 7 | (3/3) Accurately ripped 8 | (3/3) Accurately ripped
==== Log checksum 09C602B17B53C1246379F7DD53315D5708D00FB989AE4C75F130502B44D73F25 ====

Содержание индексной карты (.CUE)

REM GENRE JazzREM DATE 1961REM DISCID 650A1F08REM COMMENT "ExactAudioCopy v1.3"PERFORMER "Dexter Gordon"TITLE "Dexter Calling..."FILE "01 - Soul Sister.wav" WAVE  TRACK 01 AUDIO    TITLE "Soul Sister"    PERFORMER "Dexter Gordon"    INDEX 01 00:00:00  TRACK 02 AUDIO    TITLE "Modal Mood"    PERFORMER "Dexter Gordon"    INDEX 00 07:42:67FILE "02 - Modal Mood.wav" WAVE    INDEX 01 00:00:00  TRACK 03 AUDIO    TITLE "I Want More"    PERFORMER "Dexter Gordon"    INDEX 00 05:22:30FILE "03 - I Want More.wav" WAVE    INDEX 01 00:00:00  TRACK 04 AUDIO    TITLE "End of a Love Affair"    PERFORMER "Dexter Gordon"    INDEX 00 05:18:15FILE "04 - End of a Love Affair.wav" WAVE    INDEX 01 00:00:00  TRACK 05 AUDIO    TITLE "Clear the Dex"    PERFORMER "Dexter Gordon"    INDEX 00 06:52:62FILE "05 - Clear the Dex.wav" WAVE    INDEX 01 00:00:00  TRACK 06 AUDIO    TITLE "Ernie's Tune"    PERFORMER "Dexter Gordon"    INDEX 00 04:52:42FILE "06 - Ernie's Tune.wav" WAVE    INDEX 01 00:00:00  TRACK 07 AUDIO    TITLE "Smile"    PERFORMER "Dexter Gordon"    INDEX 00 04:15:15FILE "07 - Smile.wav" WAVE    INDEX 01 00:00:00  TRACK 08 AUDIO    TITLE "Landslide"    PERFORMER "Dexter Gordon"    INDEX 00 03:21:40FILE "08 - Landslide.wav" WAVE    INDEX 01 00:00:00

Отчет CUETools

[CUETools log; Date: 12.01.2019 19:15:32; Version: 2.1.6][CTDB TOCID: Xe1ZmzCVyPF4YuXebFTKL59JYAQ-] found.Track | CTDB Status  1   | (4/4) Accurately ripped  2   | (4/4) Accurately ripped  3   | (4/4) Accurately ripped  4   | (4/4) Accurately ripped  5   | (4/4) Accurately ripped  6   | (4/4) Accurately ripped  7   | (4/4) Accurately ripped  8   | (4/4) Accurately ripped[AccurateRip ID: 000e7862-005e3030-650a1f08] found.Track   [  CRC   |   V2   ] Status 01     [fa1fd5c0|5d3c8279] (1+0/1) Accurately ripped 02     [5ef01d53|5e714aa7] (1+0/1) Accurately ripped 03     [7b3b7fcf|ed5273e3] (1+0/1) Accurately ripped 04     [6d0a75aa|7d90e4c8] (1+0/1) Accurately ripped 05     [f80b2535|371eb240] (1+0/1) Accurately ripped 06     [de69575f|4b8f9899] (1+0/1) Accurately ripped 07     [2f1682dd|97b89b2d] (1+0/1) Accurately ripped 08     [56301241|b2f1d6bd] (1+0/1) Accurately ripped
Track Peak [ CRC32 ] [W/O NULL] [ LOG ] -- 100,0 [76ADEE2E] [1F80B48A] 01 94,2 [AFB3C250] [55A64010] CRC32 02 99,5 [09FEA51F] [D502D3D3] CRC32 03 100,0 [93B9839A] [F600237C] CRC32 04 99,0 [210223C6] [71F97CE0] CRC32 05 92,7 [DD4152AF] [76FCC3FA] CRC32 06 87,4 [94ED3931] [35CDD28A] CRC32 07 89,8 [24361721] [EAF123F6] CRC32 08 99,3 [39D38DCA] [504A134C] CRC32

AllMusic Review by Michael G. Nastos

Dexter Gordon's second recording for Blue Note is a solidly swinging affair, yet constantly full of surprises. It's not unexpected that Gordon's tenor at this time (1961) was one of the most enjoyable in mainstream jazz, but his transition from the cool California scene to the hotter music environs of New York City had energized his sound and attitude. A first-time pairing with bassist Paul Chambers has something to do with this, but it also inspires pianist Kenny Drew to a great extent, while drummer Philly Joe Jones is his reliable, energetic self, and always works well with Gordon. Where Gordon's fluent melodic sense is perfectly demonstrated during the simple-as-pie groove waltz "Soul Sister," the steady, steamy bopper "I Want More," and the familiar Charlie Chaplin evergreen "Smile," his sense of expanding the specific line upon soloing is truly remarkable. He constantly keeps the song form in mind, riffing on and on without violating the basic note structures, constantly reharmonizing, shuffling the chords like a card dealer and updating the song form. "The End of a Love Affair" takes this concept into an area where his deep, subtle voice is translated directly into the low-slung voicings of his horn. The remarkable "Modal Mood" combines hard bop with Drew's three-chord piano repetitions and Gordon's soulful, simplified sax, while the equally impressive "Clear the Dex" steamrolls the competition as the band -- cued by Jones -- skillfully pushes or pull tension and release elements, then busts loose into joyous swinging in a true signature tune that is immediately recognizable as only the long, tall tenor man. The sad ballad "Ernie's Tune" is based on a yin/yang theme via Freddie Redd's stage play The Connection and the crazy character that ran wild or tame. The excellent band, solid musicianship, and memorable music on every track make this one of the more essential recordings of Gordon's career.



Ви не можете починати теми
Ви не можете відповідати на повідомлення
Ви не можете редагувати свої повідомлення
Ви не можете видаляти свої повідомлення
Ви не можете голосувати в опитуваннях
Ви не можете прикріплювати файли до повідомлень
Ви можете скачувати файли