[TR24][OF] Yoshiko Kishino - Nuage - 2018 (Jazz, Chamber Jazz)


Статистика роздачі [Оновити пиров]
Розмір:  1,22 GB   |    Зареєстрований:  2 місяця 8 днів   |    Скачано:  0 раз

Повного джерела не було: Ніколи

by Паночка ®
12-Січ-2019 19:10


[TR24][OF] Yoshiko Kishino - Nuage - 2018 (Jazz, Chamber Jazz)

Yoshiko Kishino - Nuage-- Формат записи/Источник записи: [TR24][OF]
Наличие водяных знаков: Нет
Год издания: 2018
Жанр: Jazz, Chamber Jazz
Издатель (лейбл): Universal Music LLC
Продолжительность: 01:04:35
Наличие сканов в содержимом раздачи: Только обложка альбома
Контейнер: FLAC (*.flac)
Тип рипа: tracks
Разрядность: 24/96
Формат: PCM
Количество каналов: 2.0
Источник (релизер): qobuz.com-Треклист
01. Nuage (06:15)
02. Kissing Piano (04:16)
03. Azur (06:43)
04. La Costa (07:20)
05. New Cinema Paradise ~ Love Theme (07:30)
06. Somewhere Before (05:53)
07. Ocean (06:31)
08. My Favorite Things (04:33)
09. Dance With Dinosaur (04:58)
10. Only Trust Your Heart (07:12)
11. Akari (03:24)

Лог проверки качества

foobar2000 1.4 / Dynamic Range Meter 1.1.1log date: 2019-01-12 16:10:35
--------------------------------------------------------------------------------Analyzed: Yoshiko Kishino / Nuage--------------------------------------------------------------------------------
DR Peak RMS Duration Track--------------------------------------------------------------------------------DR8 -0.60 dB -13.21 dB 6:15 01-NuageDR10 -0.60 dB -13.28 dB 4:17 02-Kissing PianoDR14 -0.60 dB -17.05 dB 6:44 03-AzurDR7 -0.60 dB -11.35 dB 7:21 04-La CostaDR13 -0.60 dB -17.85 dB 7:31 05-New Cinema Paradise ~ Love ThemeDR14 -0.20 dB -17.16 dB 5:53 06-Somewhere BeforeDR7 -0.60 dB -10.03 dB 6:32 07-OceanDR8 -0.60 dB -12.39 dB 4:33 08-My Favorite ThingsDR8 -0.60 dB -11.43 dB 4:58 09-Dance With DinosaurDR10 -0.60 dB -13.81 dB 7:13 10-Only Trust Your HeartDR14 -2.73 dB -21.11 dB 3:25 11-Akari--------------------------------------------------------------------------------
Number of tracks: 11Official DR value: DR10Samplerate: 96000 HzChannels: 2Bits per sample: 24Bitrate: 2391 kbpsCodec: FLAC================================================================================

Об альбоме (сборнике)

The 20th album of the album. An album that reminded of the countries of Europe who visited in recent years. In 11 songs, 8 songs are European flavorful overflowing composition, classical sounding lyricism and romanticism are Yoshiko Kisumino, a unique world.



Ви не можете починати теми
Ви не можете відповідати на повідомлення
Ви не можете редагувати свої повідомлення
Ви не можете видаляти свої повідомлення
Ви не можете голосувати в опитуваннях
Ви не можете прикріплювати файли до повідомлень
Ви можете скачувати файли